<?xml version="1.0" standalone="no"?>
<!DOCTYPE svg PUBLIC "-//W3C//DTD SVG 1.1//EN" "http://www.w3.org/Graphics/SVG/1.1/DTD/svg11.dtd" >
<svg xmlns="http://www.w3.org/2000/svg">
<metadata>
This is a custom SVG webfont generated by Font Squirrel.
Foundry     : Michael Tension
</metadata>
<defs>
<font id="webfont6oy8XCTs" horiz-adv-x="599" >
<font-face units-per-em="1000" ascent="750" descent="-250" />
<missing-glyph horiz-adv-x="604" />
<glyph unicode=" "  horiz-adv-x="604" />
<glyph unicode="&#x09;" horiz-adv-x="604" />
<glyph unicode="&#xa0;" horiz-adv-x="604" />
<glyph unicode="!" horiz-adv-x="605" d="M326 289q0 -4 -8 -9.5t-18.5 -6t-18 3t-7.5 15.5q0 10 -1.5 40.5t-1.5 65v61.5v31q5 13 18.5 26.5t21.5 13.5q10 0 12.5 -11t5.5 -19q-2 -56 -2 -102q-1 -38 -1 -72v-37zM352 522q0 -7 -3 0q-3 4 -3 6q0 -1 3 -1q3 -4 3 -5zM332 551q-3 -4 -12.5 -7t-4.5 2q3 5 11 8t6 -3 zM274 90q0 8 15 17l15 11q0 3 -2.5 5t-7.5 4.5t-8.5 5.5t-3.5 9q3 14 5 27.5t12 13.5q2 0 12.5 -4t20 -11t17 -19.5t4.5 -30.5q-2 -35 -22 -43.5t-32 -6.5q-25 5 -25 22zM276 172q-6 -6 -3 -28t-2 -30q-1 -5 -4 -12q-2 -4 -2 -6q-2 6 -2 11v15q0 4 -0.5 9.5t-0.5 13.5t7 18 q2 5 7 9zM351 397q0 8 0.5 25t0.5 36v46q0 -39 1 -71q0 -28 1.5 -52.5t1.5 -28.5v-66q0 -2 -1.5 -5t-1.5 -7v-5h-2v53q0 22 -1 43.5t1 31.5z" />
<glyph unicode="&#x22;" horiz-adv-x="447" d="M252 493q5 13 2 25q-2 3 -4 9t-3 13t0 14.5t5 13.5q8 9 17.5 15.5t18.5 4.5q11 -2 18.5 -8.5t8.5 -14.5l7.5 -11.5t5.5 -0.5q1 2 3 8.5t1.5 14t-3.5 13t-12 6.5q-16 4 -28 4q-6 0 -10 -1q14 2 25 2q10 0 18.5 -1t10.5 -5q2 -5 3 -11t2 -11q1 -6 1 -12q-2 1 -3 3 q-3 3 -2 11q10 13 15 -3q2 -9 -4 -15t-11 -14q-2 -6 -10 -12t-13 -32q-4 -27 -3 -42l2 -29q0 -7 1.5 -17t0 -19.5t-7 -17.5t-18.5 -10q-14 -2 -18.5 7t-5 21l-1 23.5t-4.5 15.5zM163 443l-4 -6t-4 -7q-3 -11 0 -17.5t2 -14.5q-1 -3 -7.5 -9t-14.5 -11t-15.5 -8.5t-10.5 -0.5 q-3 2 -3 11.5t0.5 21.5t1.5 24.5t1 20.5q0 17 -0.5 36.5t-4.5 33.5q-2 14 -2 32t13 26q12 6 27 9t21 -2q8 -6 9 -13t0 -13q-2 -8 5 -16t7 -15q0 -3 -3 -7t-6 -9l-5.5 -9t-2.5 -7zM349 571q3 -35 5 -65q2 -26 2 -49t-3 -31zM201 530q-2 -7 -4.5 -29.5t-4.5 -47.5 q-3 -29 -6 -63l11 156l7 -4q0 -1 -1 -3.5t-2 -8.5zM197 583q8 -17 11.5 -30t-7.5 -15q-3 -1 -5 5t-2.5 13.5l-1 14.5t-0.5 9q-2 2 -12 10.5t-17 8.5q-6 0 -14.5 2t-4.5 0q1 -1 8 -0.5t15.5 -0.5t17 -4.5t12.5 -12.5z" />
<glyph unicode="$" horiz-adv-x="610" d="M317 476q4 2 13.5 -3t22 -11t25.5 -13.5t21 -13.5t14.5 -17t10 -21t4.5 -19t-1 -12q-4 -3 -8 -3.5t-9 -4.5q-6 -5 -7 -12q-3 -6 -4 -10q1 3 1 6v12q-1 8 -7.5 6t-11.5 2q-7 3 -7 8.5t-4 13.5q-3 9 -8 16.5t-19 15.5q-8 3 -21 5t-26.5 2t-25 -2.5t-16.5 -4.5 q-10 -4 -23.5 -14t-13.5 -39q0 -14 11.5 -21.5t26.5 -12.5t28 -6.5t18 -3.5q12 -3 32 -10t25 -7q5 -2 7 1t8 8q4 4 15.5 -7.5l27.5 -28.5q18 -16 16 -48t-12 -78q-5 -23 -19.5 -33t-29 -15.5t-27 -5.5t-13.5 -2q-8 -4 -6 -21q3 -11 2.5 -22.5t-23.5 -14.5q-12 -1 -19 8.5 t-10.5 21.5t-4 23.5t-3.5 14.5q-1 5 -13 5t-22 7q-8 8 -30 28t-32 58q-6 16 -0.5 26t14.5 13t18.5 0t11.5 -7q9 -8 6 -18t3 -35q1 -9 10.5 -16.5t21 -11.5t20.5 -5.5t13 -1.5q7 0 4.5 2.5t3.5 5.5q5 0 11 -4.5t16 -3.5q12 0 31.5 9t33.5 30q5 11 4 22t-6 22t-11 19t-8 9 q-5 3 -27.5 3t-69.5 11t-65 38.5t-20 73.5q0 24 11.5 38.5t25.5 25t27 16t16 9.5q2 5 2 20.5t-2 28.5q-4 12 7.5 24t22.5 16q10 3 19 -8.5t9 -21.5q0 -5 -1.5 -14.5t-3.5 -19.5t-2.5 -16.5t1.5 -3.5zM446 378q4 -13 -2.5 -23.5t-14.5 -18.5q-9 -6 -22 -13q4 4 9 7q9 5 14 14 q4 3 5.5 9t5.5 12q4 7 5 13zM297 161l-7 6l5 5zM463 237q6 -23 -2.5 -62.5t-25.5 -56.5q-15 -17 -38.5 -27t-33.5 -15q-8 -6 -10 -14t-6 -16q-3 -8 -9.5 -14.5t-3.5 -0.5q4 5 10.5 18.5t8.5 18.5q0 5 2.5 7.5t11.5 6.5q10 6 29 13.5t41 31.5q11 14 15.5 32t7.5 36q3 19 3 42 zM255 392q-5 -10 6 -10q5 -1 10 0q-1 -1 -5 -4q-8 -4 -11 -6q-3 -6 -5.5 -2t-5.5 7q-2 4 6.5 11.5t4.5 3.5z" />
<glyph unicode="%" horiz-adv-x="654" d="M176 380v-3q-1 0 -5 3q-5 1 -7 3t-6 5q-8 5 -13 16q-17 16 -11 42q3 8 5.5 15.5t6.5 13.5q12 25 23 25q3 0 3 -1t-3 -4q-4 -3 -15.5 -15t-11.5 -41v-4q4 -31 18 -44q4 -4 6.5 -5t5.5 -4q4 -1 5 -1v-1h-1zM214 583q3 0 21 -2.5t37 -23.5q33 -35 29 -112q-4 -57 -16.5 -85 t-25.5 -40q-14 -15 -25 -16.5t-12 -1.5h-5l5 3q0 3 19 15t26 19l3 4q1 1 3.5 4.5t5.5 13t6.5 28t8.5 50.5q3 36 -8 62.5t-27 43.5q-19 19 -45 34v4zM492 495q0 -9 -24 -38l-20.5 -28.5l-41.5 -59l-52.5 -73.5l-53 -75l-42.5 -62.5l-24 -35.5l-19.5 -28.5t-21 -29.5t-19 -23 t-10.5 -5q-12 8 8 45l16 27.5l23 38l23.5 37.5t17.5 26l29 41.5t49.5 75.5l51 81.5t33.5 59.5q20 41 31 48.5t16 14.5q6 9 8.5 8.5t6.5 -4.5q6 -4 10.5 -17t4.5 -24zM242 82q-8 -1 13 32t51 74l79 108q-33 -59 -61 -104q-25 -41 -48.5 -74t-33.5 -36zM207 570q3 1 9 -1.5 t21 -27.5q9 -12 21.5 -48t12.5 -70v-3q-1 -29 -17.5 -55t-19.5 -30q0 -1 -2 -3q-2 -4 -25 -10.5t-47 -4.5q-21 4 -42 22.5t-26 67.5q-6 45 -1.5 71.5t14.5 42t20 23.5t17 11l5 2q13 7 57 7q0 6 3 6zM145 374q8 -4 9 -6h-1q1 -3 12.5 -10t26.5 -1q18 6 33.5 23t14.5 59 q-3 42 -18.5 60t-31.5 23q-13 3 -19 1.5t-9 -5.5l-2 -1q-45 -34 -44 -72q2 -35 13.5 -52t15.5 -19zM466 94v-3q-1 0 -5 2q-7 4 -12 9q-4 3 -7.5 6.5t-6.5 8.5q-16 18 -11 42q6 21 12 29q7 15 13 21t10 7l3 -1v-3v-1q-1 -2 -3 -2l-15.5 -16t-11.5 -38v-5q3 -30 18 -45 q5 -5 12 -8q4 -3 6 -3v-1zM504 296q3 1 21.5 -2.5t37.5 -23.5q31 -33 28 -112q-4 -56 -16 -83.5t-26 -40.5q-15 -13 -25 -15t-12 -2h-5l5 4l19 13t16 11.5t10 9.5l3 1q1 1 4 6t5.5 14.5t6 28t8.5 50.5q3 34 -8.5 60t-26.5 43q-20 19 -45 34v4zM497 284q2 0 8.5 -1.5 t21.5 -25.5q10 -12 22 -49.5t12 -68.5v-4q-1 -31 -17.5 -57l-18.5 -29l-3 -4q-1 -2 -24.5 -9.5t-47.5 -2.5q-20 4 -41 22.5t-27 65.5q-5 44 -1 71t13.5 43t20.5 23l17 11l6 3q7 4 21 6t36 -1q0 4 2 7zM435 90q8 -4 10 -9l-2 1q2 -1 13.5 -8t26.5 -2q16 6 32 22t14 61 q-2 40 -17.5 58.5t-31.5 23.5q-12 4 -18.5 2t-10.5 -5l-1 -2q-46 -33 -43 -74q1 -35 12.5 -51t15.5 -17z" />
<glyph unicode="'" horiz-adv-x="280" d="M100 493q3 6 3.5 12.5t-0.5 11.5q-2 3 -4 9t-3 13t-0.5 14.5t4.5 12.5q8 9 18.5 16t19.5 6q9 -3 16.5 -10t9.5 -13q3 -6 7 -12t5 -1q1 2 3 8.5t1.5 13.5t-3.5 13t-12 8q-8 2 -15 2h-12q-6 0 -11 -1q14 1 25 2q10 0 19 -0.5t11 -4.5q2 -5 2.5 -11t1.5 -11q1 -6 1 -12 q-2 0 -3 2l-2 4t1 6q4 8 8 8t7 -9q1 -9 -5 -15t-10 -13q-1 -3 -4 -6t-6.5 -7.5t-7 -11.5t-4.5 -20q-4 -27 -4 -42t1 -29l2.5 -17t0 -20t-7.5 -17.5t-19 -9.5t-17.5 7t-5.5 21t-1 23.5t-5 15.5zM198 570q3 -35 5 -65q2 -26 2 -50t-2 -32z" />
<glyph unicode="(" horiz-adv-x="369" d="M302 51q2 4 8 3q11 -4 12 -23q0 -19 -7 -27q-4 -3 -9 -3q-26 -4 -56.5 1.5t-58.5 26.5t-47.5 61.5t-27.5 108.5q-10 110 2.5 174t33.5 99t42.5 47.5t32.5 20.5q12 8 35 10.5l42 4.5q6 -2 10 -6q7 -6 8 -19q1 -17 -1 -23t-6 -9q-5 -4 -9 -3q-25 7 -38.5 0t-22.5 -13 q-3 -4 -20.5 -19t-37.5 -39.5t-34 -60t-11 -77.5q1 -46 10.5 -79.5t20.5 -56.5t21 -34.5t14 -12.5q14 -10 16 -16q0 -2 7 -8.5t17 -13t23.5 -11t30.5 -3.5zM177 297q8 50 20.5 82t24 49.5t20 21.5t10.5 3q0 -1 -10.5 -10.5t-24 -31.5t-23.5 -56.5t-9 -86.5q1 -54 13.5 -86 t27.5 -49q17 -19 38 -30q-33 19 -54 47q-19 25 -31.5 61t-1.5 86z" />
<glyph unicode=")" horiz-adv-x="381" d="M63 549q10 0 24 -0.5t14 0.5q-9 21 8 9t41 -36q51 -53 80 -166q9 -28 9 -63.5t-5.5 -73t-17 -74.5t-24.5 -67q-13 -35 -43 -56t-71 -24q-5 -2 -9 1q-3 4 -5 8t-2 19q-1 22 10 33q4 5 9 7q23 0 44 20t37.5 50.5t24.5 68.5t8 74q0 31 -7.5 68t-23 66.5t-37 49.5t-47.5 24 q-4 1 -7.5 0.5t-9.5 -0.5q-4 0 -11.5 8.5t-5.5 22.5q0 12 4.5 21.5t12.5 9.5zM176 552q22 -18 39.5 -47t30 -60.5t19 -60t7.5 -40.5q3 -13 4 -44t-3.5 -70t-13 -80.5t-25.5 -74.5q-17 -35 -44 -57t-55 -36q-31 -15 -63 -25q20 6 39 16q18 9 39 23.5t42 37.5q42 47 54.5 89 t19.5 92q4 27 2 59t-6 65.5t-11.5 64t-14.5 54.5q-8 23 -28 46t-39.5 39.5t-36.5 28t-21 11.5l-10.5 3.5t-11.5 6.5q-8 2 -15 6q15 0 30 -5q29 -10 72 -42z" />
<glyph unicode="*" horiz-adv-x="527" d="M384 421q27 -9 26 -27q-2 -10 -9.5 -18.5t-16.5 -12.5q-12 -4 -17 0t-12 4h-66l15 -11t15 -10q9 -8 19.5 -10t11.5 -9q0 4 4 11q1 3 3 6q9 -4 10 -13t-3 -17q-3 -11 -9 -23q-4 2 -5 8q-4 11 -4 18q-7 -15 -16.5 -14.5t-20.5 10t-20 24.5t-15 27l-2 -11q-3 -7 -1.5 -18.5 t2.5 -23.5t1 -21.5v-12.5q-2 -3 -10 -10q3 -9 1.5 -14.5t-10.5 -5.5q-10 0 -21 11q-1 -3 -4.5 -5t-4.5 6q0 3 0.5 14.5t1 26t2.5 28t2 24.5q-5 -6 -12 -17.5t-14 -21.5l-12.5 -18t-7.5 -8h-16q-4 -7 -9 -10t-13 5q-8 9 -8 22q-3 0 -7.5 2t0.5 11q3 2 12.5 9l22.5 16 l26.5 18.5t20.5 15.5q-10 0 -22 -1t-25 -3t-24 -3t-12 -1q-5 3 -11 12q-3 4 -3 7q-4 2 -8 6q-5 5 -5 12q3 4 7 8t1 8q-4 3 0.5 2t13.5 4h16t27 0.5t28 2.5t18 6q2 -1 11 -1v49q0 5 -5.5 19t-1.5 31q3 13 14.5 18t21.5 5q19 -4 23 -29q1 -12 -1.5 -15.5t-2.5 -11.5v-54 q6 7 13 18q3 5 5 10q4 4 9 18t19 20q14 10 26 3t20 -16q6 -7 6.5 -18t-6.5 -19q-8 -11 -12.5 -11.5t-9.5 -5.5l-66 -37q1 0 4 -4q2 -2 2 -4q2 0 15.5 4.5t29 8t31.5 6t24 1.5zM189 465q-5 0 -17.5 4.5t-20.5 14.5q-8 16 15 33q7 -16 14 -25l8.5 -19t0.5 -8zM198 484 q-2 -10 -9 8q-4 6 -6 19l-4 6q5 -4 10 -10q9 -13 9 -23zM372 436q2 4 6 4q7 0 14 -12z" />
<glyph unicode="+" horiz-adv-x="607" d="M440 276q15 0 22.5 -15.5t4.5 -33.5q-4 -16 -16 -23t-20 -7q-10 0 -16 3.5t-13 3.5h-26.5t-52.5 1q-2 -38 -3 -67.5t-1 -31.5q0 -5 1 -23t-21 -22q-19 -5 -31 6.5t-16 26.5q-4 14 4 24t8 15v75q-31 0 -55 0.5t-28 0.5q-3 0 -19 -0.5t-24 19.5q-4 10 5.5 21t24.5 15 q13 4 25.5 1t17.5 -3q1 0 16 -2l37 -5v30q1 13 -1.5 22t-4.5 17t-5 15.5t-3 22.5q2 13 17.5 22t31.5 5q19 -3 26 -16.5t7 -21.5q0 -10 -3.5 -16t-3.5 -13q0 -1 -9 -21.5t-9 -30.5q0 -8 5.5 -10.5t8.5 -9.5q5 0 11 -1.5t10 -1.5q6 0 21.5 6.5t19.5 8.5q15 3 30 8.5t27 5.5z M375 175q15 0 21.5 -0.5t11.5 -0.5q1 0 -8 -0.5t-20.5 -1.5t-21.5 -1t-13 3h10q4 0 8.5 0.5t11.5 0.5zM215 185h25q-2 -4 -9.5 -5t-13.5 0t-10 3t-3 2h11zM481 253q4 -3 2.5 -9t-1.5 -14q-1 -7 -1 -15v38z" />
<glyph unicode="," horiz-adv-x="604" d="M343 96l-7.5 -23t-5.5 -16q-10 -10 -24 -21.5t-22 -12.5q-9 -3 -13 2.5t-8 9.5q-3 3 -1.5 11t5.5 14q1 5 6 10t5 10q0 8 -3 13t-3 14q0 8 6 11.5t8 11.5q1 7 -0.5 17t1.5 20q3 8 9 8h20q15 0 24.5 -18.5t9.5 -31.5zM280 172q-1 -5 -1.5 -11t-4.5 -13q-5 -8 -6 -16 q-1 1 -1 6v17q0 6 7 13q4 4 6 4zM372 144q6 -22 1.5 -41t-12.5 -35q-10 -19 -25 -33l6 6q7 6 15 24q5 8 8 22.5t4 26.5q3 14 3 30z" />
<glyph unicode="-" horiz-adv-x="610" d="M253 310q5 -3 22 -1.5t37 1.5h48q4 0 18 6.5t28 1.5q15 -5 20.5 -22t2.5 -28q-1 -11 -7 -20.5t-19 -10.5q-12 -4 -16.5 -0.5t-11.5 3.5h-132q-12 0 -29.5 -1t-23.5 3q-8 3 -9 10q-4 4 -4 9l6 3q7 4 7 10q3 5 -6 11.5l-13 9.5q-3 4 -4 8t8 7q8 3 36.5 3t41.5 -3z" />
<glyph unicode="." horiz-adv-x="605" d="M265 104q0 8 15 17l18 10q0 4 -4 6t-9 3.5t-8.5 4t-3.5 9.5q2 15 4.5 28t12.5 13q2 0 13 -3.5t20.5 -10.5t17.5 -19.5t7 -30.5q-4 -37 -23.5 -44.5t-33.5 -5.5q-26 5 -26 23zM267 184q-6 -7 -3 -28t-2 -29q-1 -6 -5 -14q-1 -2 -1 -4v26q0 4 -2 9t-2 14q0 7 8 18q2 5 7 8z " />
<glyph unicode="/" horiz-adv-x="611" d="M502 495q0 -8 -28 -38q-2 -5 -20 -29.5l-41.5 -59l-52 -73l-53 -74.5l-42.5 -62.5l-24 -35.5l-19.5 -28.5l-20 -29.5t-18 -23t-12.5 -5q-9 5 -4.5 15.5t13.5 29.5q4 9 15 27.5l23 38l23.5 37.5t17.5 26l29 41.5l50.5 75.5l50.5 81.5t34 59.5q19 41 31 48t18 16q5 8 8 7.5 t5 -4.5q4 -6 10.5 -18t6.5 -23zM252 82q-4 -3 -0.5 5t13.5 23l23 34t26 41l80 111l-65 -102l-47 -73t-30 -39z" />
<glyph unicode="0" horiz-adv-x="608" d="M349 543q6 4 21 -11.5t29 -40.5q7 -13 19.5 -39t23 -60.5t18 -70.5t6.5 -68q-1 -31 -12.5 -61t-26.5 -55q-15 -28 -36 -53l-2 -9q-2 -2 -19.5 -8.5t-46 -11.5t-61 -2t-61.5 20t-51.5 53t-28.5 98q-11 93 1 149t32.5 87t41.5 42t32 16q11 6 28.5 8.5t36 3.5t33 1h16.5 q6 0 4 5.5t3 6.5zM427 287q0 52 -12.5 86.5t-30 56.5t-36.5 33t-35 15q-26 9 -41 3t-25 -13q-5 -4 -22.5 -16t-36.5 -33t-33 -52.5t-13 -69.5q3 -37 12.5 -66t21 -48.5t20.5 -29.5t13 -13q15 -5 18 -12q0 -2 7.5 -8.5t19.5 -13.5t29 -9t35 5t37.5 17t36 32t27 55t8.5 81z M183 313q9 44 21 73t22 44t18.5 19t9.5 3q0 -1 -10 -10t-22.5 -27.5t-22 -49.5t-7.5 -78q1 -46 12.5 -75.5t25.5 -44.5q16 -20 36 -27q-30 18 -50 42q-19 22 -30 54.5t-3 76.5zM319 571q56 -1 100 -29q35 -25 64 -80.5t24 -159.5q-7 -104 -35 -160t-58 -81q-35 -30 -78 -34 l43 27l34 21.5t25 19.5q6 7 12.5 12.5t13 22.5t14.5 55t19 107q11 70 -15.5 123t-61.5 89q-42 39 -101 67z" />
<glyph unicode="1" horiz-adv-x="610" d="M312 267q0 18 -2 47.5t-5 59t-5 51.5t-4 22q-15 4 -26 -11q-4 -6 -13 -21.5t-16 -18.5q-8 -4 -19 0q-7 0 -12 2q11 12 17 23q7 8 13 17.5t11 15.5q1 5 12 19.5l22 30t22.5 27t16.5 11.5q8 0 13 1t10 7q3 7 3 13v6l-12 9q7 -4 15 -10q13 -11 19 -20q5 -13 -3.5 -5.5 t-13.5 6.5q-2 0 -4 -2t-6 -3q-3 -2 -5 -5q2 -4 5 -12q2 -4 3.5 -12t1.5 -15t-0.5 -28t-1.5 -45t-2 -44.5t-1 -25.5q0 -6 -1 -38.5t-1 -70v-70.5v-39q0 -5 3.5 -19.5t5.5 -29.5t-1.5 -26.5t-15.5 -11.5q-25 -1 -29.5 13t-5.5 26q0 6 1 28t4 49t5 54.5t2 44.5zM379 531 q1 -1 1 -4q0 -7 3 -12q0 -1 0.5 -32.5t0.5 -79.5v-100.5t-0.5 -98.5t-0.5 -78v-32z" />
<glyph unicode="2" horiz-adv-x="615" d="M194 372q-19 -8 -31 -5q-4 2 -7.5 11.5t-3.5 25.5t4 35t19 41q14 19 31.5 30.5t34 17t29 7t17.5 1.5q4 0 15.5 -1.5t24.5 -5.5t28 -7l-4 16l42 -28l30 -25t19 -22q3 -8 5 -26.5t1.5 -38t-4.5 -36.5t-8 -25q-6 -9 -25.5 -21l-42 -25.5l-43 -26t-27.5 -19.5 q-10 -7 -23.5 -22.5l-28.5 -34t-26 -34.5t-12 -23q-4 -15 -4.5 -21t8.5 -9q8 -2 17.5 1t16.5 4q10 3 18 0.5t20 -2.5q4 0 22 -1.5t38.5 -3t36.5 -1.5t22 1l29 15.5t36 4.5q17 -7 24.5 -25t4.5 -27q-6 -10 -23 -21.5t-25 -11.5q-9 0 -18.5 5t-18.5 5q-5 0 -35 1t-65.5 3 t-66 4.5t-37.5 2.5q-26 4 -37 9q-4 0 -5.5 16.5t-1.5 37t4.5 43.5t14.5 37q21 30 43.5 51t48.5 36q12 7 36.5 19t47.5 27.5t37.5 33.5t6.5 36q-14 35 -34.5 56t-65.5 19q-47 -2 -73 -23t-29 -28q-4 -11 -4 -12q-1 -4 -1 -6q4 5 7 6q9 3 9 -6l-6 -20t-12 -15zM279 450 q-4 0 -10 -2q-9 -4 -24 -17q-15 -18 -16.5 -36.5t-9.5 -29.5q-4 -7 -10 -11.5t-13 -7.5q-7 -5 -18 -9l4 8q3 4 8 8q4 4 8.5 4.5t8.5 0.5q2 2 7 10t8 15q0 1 1 1t1 3l2 1l-2 -1q0 8 2 15q4 16 8 30q5 12 26 16q8 2 19 2zM478 388q-3 -16 -6 -30q-4 -12 -5 -24t-6 -18 q-6 -11 -18.5 -24t-27.5 -22q-7 -3 -25 -14.5l-38.5 -24.5l-37.5 -24.5l-23 -15.5q-15 -11 -23 -19q-7 -7 -11 -13l49 -10h-13h-13t-11 2q-9 0 -20 -4q-6 -1 -10 -4q-1 -1 -2 -1q-4 0 2 13q4 9 18.5 21t31.5 24.5t32 22t21 11.5q5 4 18 10.5l28 14.5t29.5 17l22.5 14 q9 4 15 20.5l12 34.5q7 19 11 43zM498 40q-1 -11 -20 -14q-10 -1 -22 -1q4 -3 7 0q4 0 15 6l13 7q3 2 7 2z" />
<glyph unicode="3" horiz-adv-x="602" d="M188 422q-3 -9 -8.5 -22.5t-18.5 -16.5q-8 -1 -15.5 7t-0.5 34q4 12 15.5 31.5t30.5 37.5t47.5 30t63.5 12q37 0 63.5 -17.5t43.5 -38.5t25.5 -41.5t8.5 -26.5q2 -10 -3 -37.5t-13 -39.5l-19.5 -27t-10.5 -19q0 -1 9.5 -8.5t20.5 -21t20.5 -36t9.5 -49.5q0 -30 -13.5 -54 t-34.5 -41.5t-49 -27.5t-59 -10q-33 0 -60 8.5t-48 22.5t-34.5 29t-16.5 25q-6 10 -8.5 24t-3 28.5t0.5 24t9 9.5q14 0 20 -8t14 -16q10 -10 10.5 -13.5t0.5 -12.5v-16.5t11 -20t37.5 -18t76.5 -8.5q52 0 73.5 18t26.5 39.5t-1 42t-9 25.5q-7 12 -20.5 24t-33.5 16 q-19 2 -40.5 7t-26.5 8l-4 8t-4 15t-1 17t2 11q7 12 8 12q3 3 6 3q7 -6 15 -11q7 -4 13.5 -8.5t16.5 -2.5q17 0 43 20.5t26 60.5q0 19 -17 36t-42 26.5t-50.5 12.5t-39.5 -4q-30 -15 -45 -29t-18 -23zM275 444q-18 -3 -27.5 -8t-15.5 -12.5t-10 -17t-10 -20.5 q-12 -21 -31 -27t-16 -2q0 6 9.5 8.5t21.5 10.5q12 10 14 22t12 26q9 15 33 17q10 3 20 3zM443 305q-2 5 3.5 19l11.5 28q7 17 19 36q-1 -8 -2 -15q-2 -8 -3 -14.5t-4 -12.5q-4 -7 -8 -13t-8 -13q-6 -6 -9 -15zM231 157l6 -11q0 -6 -5 -1t-13 12q-9 6 -15 20.5t-9 22.5 q-4 4 -7.5 8t-7.5 8q-6 6 -8 11q2 0 6 -2q7 -3 13 -7q7 -6 11.5 -21t7.5 -21q4 -7 9.5 -6.5t7.5 -6.5zM482 161q4 -11 1 -23q-1 -11 -6.5 -27t-19.5 -33q-14 -21 -30 -29.5t-28 -11.5q-17 -5 -29 -5q4 1 11 5l17 7.5l28 12.5q15 10 26 25.5t17 33.5q7 19 13 45z" />
<glyph unicode="4" horiz-adv-x="605" d="M404 517q-2 -11 -2 -18q-2 -7 -2 -14.5t-4 -12.5q-3 -5 -4 -26.5t-1 -46.5v-48t2 -34t2 -29.5v-38v-35t1 -19.5q3 -7 10.5 2t19.5 15q12 9 15 11t12 6q7 1 22.5 -16.5t15.5 -31.5q0 -23 -19 -35q-16 -12 -35 -7q-8 4 -21.5 10t-20.5 4q-7 -3 -1 -29l10 -43 q3 -15 -1 -20.5t-14 -14.5q-8 -7 -11.5 -7t-18.5 5q-6 2 -8 18t-2 34.5t2 34t2 16.5q0 10 -13 18q-5 4 -16 -5.5t-19 -12.5q-4 -1 -34 -1h-65h-89l5 5q4 4 7.5 24t6.5 29q4 8 8.5 20t11.5 28q3 7 26 35l48.5 59l47.5 57.5t23 31.5q3 6 7.5 16t11.5 23t11 22.5t5 14.5 q4 8 18.5 16.5t17.5 12.5q2 1 2 4t2 5q0 4 1 7v-4q0 -8 4 -9q3 -6 10.5 -10t12.5 -16zM354 188q0 5 1.5 40.5t1.5 76.5t-2 76t-8 41q-4 1 -10.5 -5.5t-15 -17.5t-16 -22t-11.5 -15q-2 -5 -13 -19.5l-22.5 -29.5t-24 -28t-17.5 -20q-12 -13 -26.5 -35t-10.5 -27q2 -3 1 -5.5 t0.5 -4t7 -1.5t20.5 1q27 5 52 5t35 -3q11 0 18 -3.5t16 -6.5q9 -4 16 -4.5t8 7.5zM282 287q-11 -7 -17 -16q-7 -8 -13 -16.5t-11 -12.5q-2 -4 4.5 -5t17.5 -1q12 0 29 2q-4 -2 -10 -2h-17q-9 0 -26 -5.5t-15 -0.5q0 4 10 13t20 20q12 12 28 24z" />
<glyph unicode="5" horiz-adv-x="605" d="M413 502q-7 -18 -12 -19q-9 -4 -36 0t-42 4q-8 0 -27.5 0.5t-40 0.5t-38 -0.5t-19.5 -3.5q-5 -3 -2.5 -3t2.5 -14q0 -7 -0.5 -22t-0.5 -31.5t0.5 -30.5t4.5 -20q3 -5 8.5 -3t11.5 7t15 11t18 10q19 5 41 2.5t60 -21.5q36 -19 60.5 -61.5t24.5 -86.5q0 -26 -12 -54.5 t-35 -54.5t-54.5 -43.5t-70.5 -17.5t-65 14t-43 32.5t-26 34t-13 21.5q-4 11 -6 20.5t4 13.5q6 5 15 1.5t16 -12.5q9 -11 14 -22l9 -20q1 -4 12 -9l24 -10.5t26.5 -10t18.5 -4.5q7 0 29 2t45.5 13.5t43 35t19.5 66.5q0 42 -18 63.5t-44 31t-49.5 9.5t-33.5 -2 q-19 -3 -46.5 -8t-31.5 4q-3 6 0.5 13.5t3.5 17.5q0 5 -1.5 29.5t-1.5 54.5t-0.5 57t-0.5 37q0 17 0.5 20.5t8.5 3.5t25 -0.5t29 -0.5q7 0 22 0.5t32.5 1t32.5 2t22 2.5q15 3 21 8.5t20 5.5q13 0 24 -16.5t11 -31.5zM234 458q1 -13 7 -14.5t20.5 -2t39.5 -5.5t63 -24 q39 -19 60 -46t31 -51q13 -29 15 -62l-11 44q-6 15 -18 32.5t-29 34t-35.5 29t-34.5 19.5q-15 7 -34.5 7t-35 -0.5t-27 -3.5t-13.5 -1q-2 0 -2 7.5t2 15.5q0 9 2 21zM247 164q-15 -3 -29 3t-25 16t-17.5 19t-8.5 10q-4 5 14.5 -8t29.5 -27q5 -4 13 -6.5t14.5 -4t9.5 -1.5 t-1 -1zM211 278q-3 0 4.5 2.5t18.5 5.5l19.5 5.5t10.5 2.5q1 -1 -5 -4t-16.5 -5t-20 -4.5t-11.5 -2.5zM472 233q-2 -68 -26 -105.5t-48 -57.5q-33 -20 -68 -27q18 8 38 20l34 24t32 30q14 17 23 36.5t13 37.5q5 19 2 42z" />
<glyph unicode="6" horiz-adv-x="595" d="M272 452q4 2 9 5q7 1 18 -5h-27zM229 434q5 0 3.5 -3.5t-5 -10t-6.5 -13t-5 -7.5q0 -3 11.5 -3t28 1.5t36 2t33.5 -0.5q15 -1 33 -10.5t33 -23.5q21 -13 38 -31l-23 18q-11 9 -26.5 16t-35.5 15q-19 8 -40 8.5t-39 -3.5q-19 -3 -41 -8l3 7l-17 -14q-9 -5 -13.5 -10.5 t-7.5 -5.5q-5 0 0 18q3 5 6.5 14t9 18.5t12 17.5t12.5 8zM216 241q23 18 30 18.5t15 3.5q3 0 -4.5 -6.5t-17 -16.5l-17.5 -19t-8 -13q-2 -9 0 -11t8 -5q1 -4 8 -10t16 -13q8 -7 19 -18q-19 11 -35 19q-14 10 -25.5 16.5t-9.5 11.5q0 5 4 12q1 2 1 5q-3 2 -3 6q0 2 3.5 7 t15.5 13zM474 132q-18 -35 -40 -55.5t-45 -30.5q-28 -13 -53 -18q30 11 55 27q23 14 44 31.5t31 41.5q16 49 18 75t-6 42q-7 14 -13 31q-4 7 -9 15q17 -20 26 -45q8 -21 8 -51t-16 -63zM349 572q17 -1 34 -8q14 -8 31.5 -19t35.5 -36q2 -3 -5.5 3t-17.5 15.5t-23.5 19 t-21.5 13.5q-10 4 -16 7t-9 4q-5 1 -8 1zM448 412q-21 -11 -43 4q-15 8 -29.5 31.5t-41.5 31.5q-30 11 -61 -3.5t-61 -30.5q-15 -10 -23.5 -27t-15.5 -34.5t-9 -31t-5 -13.5q-2 -3 -5 5.5t-10 -2.5q-5 -10 1 -26t17 -18q4 0 13 6t17.5 15l16 17l9.5 10q4 4 8.5 2t19.5 -4 q14 0 34 1t27 5q10 3 28 -0.5t64 -33.5q22 -16 33.5 -38t15.5 -48t0 -51.5t-11 -46.5q-6 -21 -26.5 -41.5t-49.5 -32.5t-66 -12t-77 21q-41 21 -63.5 64t-30.5 93.5t-5.5 97.5t10.5 77q18 59 65.5 104t109.5 45q32 0 58.5 -11.5t46.5 -26t32.5 -27t14.5 -16.5q6 -7 5.5 -28 t-13.5 -27zM200 256q-8 -11 -13 -20t-7 -14q-6 -7 -8 -12q2 -15 8 -32t31 -32q24 -16 41 -28.5t52 -14.5q18 -3 37 5t34.5 22.5t26.5 32.5t10 40q-4 39 -30.5 61.5t-70.5 26.5q-84 6 -111 -35z" />
<glyph unicode="7" horiz-adv-x="611" d="M159 573q24 -1 45 -1q17 -2 35 -2h26q9 0 30.5 -0.5t44.5 -0.5h42t23 1l18 8t15 9q8 2 12.5 -3.5t14.5 -13.5q4 -5 5.5 -16t2 -23t0.5 -22.5v-14.5q0 -8 -4 -12.5t-38 -29.5q-15 -12 -34 -33.5t-34.5 -47l-30 -50t-21.5 -40.5q-8 -18 -10.5 -45t-4 -53.5t0.5 -47.5t2 -27 q1 -12 -3 -16.5t-18 -10.5q-13 -3 -17 -1.5t-14 16.5q-7 14 2.5 31.5t12.5 21.5q0 11 -9 11q-6 0 -3 3.5t4 11.5q0 5 4 23l10 43.5t14.5 53t20.5 54.5q10 26 27.5 47.5t34 39.5t28 32t11.5 24q1 19 -12.5 25t-25.5 6q-10 -2 -15.5 -6.5t-20.5 -5.5q-6 0 -35.5 -2t-62 -3 t-59 -1t-26.5 2q-3 4 0.5 10t3.5 13q0 9 -2 13t-2 11t2.5 9.5zM501 517q2 -10 0 -19q-1 -9 -3.5 -18t-12.5 -17q-42 -37 -70.5 -78t-45.5 -76t-25 -59t-8 -26q0 -3 3.5 8.5t8.5 30t14 39.5t20 42q11 17 28.5 39t35 41.5t31.5 33t16 17.5q2 3 2.5 10.5t3.5 14.5z" />
<glyph unicode="8" horiz-adv-x="594" d="M292 547q17 0 45 -6t54.5 -20.5t44.5 -35.5t18 -52q0 -29 -6.5 -50t-14.5 -35t-15 -22.5t-7 -15.5t9.5 -15.5t20.5 -23.5t20.5 -35.5t9.5 -51.5q0 -30 -12.5 -55t-32.5 -42.5t-46 -27t-50 -9.5q-26 0 -58 4.5t-60.5 18.5t-47.5 40t-20 71q0 43 9 66t19.5 33.5t21 14.5 t10.5 12t-9 13t-19 13.5t-17.5 26.5t-6.5 54q2 37 16.5 62t36.5 40.5t44 21.5t43 6zM377 341q11 6 18 12q7 9 12 21t5 31t-11.5 33t-26 23.5t-31.5 14.5t-30 5q-9 0 -30.5 -3.5t-40.5 -11.5t-34 -20.5t-15 -29.5q0 -18 8.5 -31.5t21 -22.5t26.5 -13.5t22 -7.5 q21 -5 53.5 -6.5t52.5 6.5zM426 196q0 15 -9 30t-19 28.5t-19.5 21.5t-13.5 10q-7 2 -12.5 1t-16.5 -5q-10 -3 -29 -3t-31 1q-11 2 -23.5 2t-18.5 -2q-5 0 -13 -2.5t-17.5 -10.5t-15.5 -22t-5 -37q4 -46 42 -76.5t98 -27.5q30 0 50 10t31.5 23t16.5 27.5t5 24.5v7zM476 110 q12 28 16 58.5t1.5 59.5t-14.5 53t-33 36q6 9 12 16q13 16 18 31q1 7 2 16t3 18q2 8 2 20q0 -13 1 -24q0 -11 0.5 -20.5t-1.5 -14.5q-6 -10 -16 -25q-6 -6 -9 -13q15 -19 26 -41q10 -19 14.5 -44.5t1.5 -55.5q-9 -61 -28.5 -90t-46.5 -41q-14 -7 -28 -10t-28 -7 q-16 -2 -33 -5q30 4 57 12q23 10 45.5 25.5t37.5 45.5zM229 412q2 -7 12 -13t21.5 -11.5t21 -9t12.5 -7.5q3 -3 -11 -1.5t-29.5 7t-27.5 14t-12 19.5t10 20t22 16l34 13q-16 -8 -28 -15q-10 -8 -18 -17t-7 -15zM240 164q-16 15 -23 28q-7 12 -6 27t18 33q0 -12 -1 -25 q-1 -10 -2.5 -20.5t1.5 -17.5q1 -10 8 -17q4 -4 5 -8zM277 133q-3 -2 -18 9q-7 4 -12 12q1 -2 7 -2q4 -2 7.5 -2t7.5 -4q5 -4 7 -8q1 -4 1 -5z" />
<glyph unicode="9" horiz-adv-x="595" d="M214 155q1 -15 11 -26q8 -8 22 -17.5t40 -12.5q26 -1 47 10.5t37.5 27t28 32.5t16.5 28q7 11 9.5 32t2.5 46.5t-2 53.5t-6 51q-9 46 -33.5 65t-49.5 28q-11 4 -33 3t-44.5 -9.5t-43 -20t-29.5 -23.5q-8 -13 -7.5 -27.5t6.5 -26t14 -20.5t14 -11q8 -10 8 -8.5t4 -2.5t5 -7 t9 -11q4 -4 21 -6l36.5 -4.5t37 -5t23.5 -2.5q11 0 22.5 9t7.5 5l-11 -10.5t-13 -14.5q-1 -10 2.5 -8t3.5 -7q0 -3 4.5 -6t2 -7.5t-17 -5.5t-50.5 -4q-37 -1 -64.5 10.5t-46.5 26t-31.5 32t-19.5 29.5q-9 13 -9.5 34.5t3.5 45t14.5 45.5t27.5 38q17 14 39.5 22.5t44.5 12.5 q24 5 49 3q-2 0 0 2l6 4q4 1 24.5 -10.5t61.5 -42.5q19 -17 33 -49.5t20.5 -74.5t4.5 -89t-15 -93q-12 -45 -30.5 -71.5t-40.5 -41t-47.5 -19t-52.5 -7.5q-25 -4 -51 7.5t-45 29.5t-30.5 37.5t-11.5 28.5q0 11 5.5 20t12.5 14q6 7 17 13v5q0 4 3 7q4 4 5.5 -6.5t1.5 -14.5 q0 -5 2.5 -3.5t17.5 -6.5q14 -10 8.5 -12.5t-1.5 -12.5zM168 228q9 -1 17 -5q10 -3 17.5 -5.5t12.5 -5.5q6 -3 12 -3.5t10 -3.5q5 -1 11 -1q-4 -1 -10 -4l-7.5 -5.5t-4.5 -12.5q-1 -8 5 -17t14 -18l22 -18q-3 0 -6 3q-4 1 -8 3t-9 5q-11 6 -21 27t-16 32q-4 5 -10 10.5 t-13 8.5q-7 5 -16 10zM222 393q4 -15 15 -27.5t24 -21.5q17 -10 36 -17q-29 7 -49 17q-21 9 -36.5 22.5t-13.5 32.5q0 17 13.5 26.5t28.5 15.5q20 7 40 7q-17 -3 -31 -10q-12 -8 -21 -18t-6 -27zM458 105q-5 -10 -23.5 -26t-40 -30.5t-45 -22.5t-36.5 -5q31 7 61 21 q24 13 48.5 33t39.5 52q12 31 22.5 69t14.5 75t0 74t-16 70q-14 31 -21 48t-12 26.5t-11.5 15t-17.5 13.5q-12 10 -24 16.5t-23 13.5l-27 16q28 -7 57 -24q23 -16 47.5 -44t41.5 -80q17 -49 15.5 -98.5t-11 -93.5t-21.5 -76t-18 -43z" />
<glyph unicode=":" horiz-adv-x="611" d="M354 104q-2 -10 -5 -18.5t-7 -11.5q-5 -8 -17.5 -9.5t-24 0t-20.5 4t-7 6.5q4 6 10.5 11t6.5 11q0 4 -6 2.5t-6 6.5q0 10 6 13.5t8 9.5q2 7 1 18t2 19q4 10 8.5 10h19.5q16 0 25.5 -18.5t9.5 -33.5zM287 172q-2 -6 -3 -12t-5 -13q-2 -7 -5 -16v23q0 9 5 15q4 3 8 3z M331 51q18 11 29 24q9 12 15 30t-3 42q5 -8 9 -18q7 -19 -4 -36q-12 -18 -28 -31q-7 -9 -18 -11zM278 492q0 8 16 18l17 11q0 2 -5 4l-8.5 3.5t-7 4t-3.5 9.5q2 15 4.5 28t9.5 13q4 0 14.5 -3.5t20.5 -10t17.5 -19t6.5 -29.5q-3 -36 -22.5 -44.5t-33.5 -6.5q-26 3 -26 22z M279 573q-5 -8 -2.5 -29t0.5 -29q-3 -5 -6 -12q-1 -4 -1 -6v26q0 4 -2 9.5t-2 13.5q0 7 7 18q4 5 6 9z" />
<glyph unicode=";" horiz-adv-x="615" d="M352 97q-4 -14 -8 -24t-8 -16q-7 -11 -20.5 -22.5t-23.5 -12.5q-8 -1 -12.5 3.5t-7.5 8.5q-4 4 -2 11.5t3 13.5l8 10.5t4 10.5q0 7 -3 12.5t-3 13.5q0 10 6.5 13t6.5 10q3 7 1.5 18t2.5 19q4 9 10 9h19q15 0 24.5 -18t9.5 -33zM288 171q-3 -7 -5 -24q-3 -7 -6 -17 q-2 3 -2 9v14q0 10 5 15q4 3 8 3zM378 144q7 -22 3.5 -41.5t-11.5 -34.5q-10 -20 -26 -34l6 6q4 4 6.5 8.5t9.5 15.5q5 10 8 23.5t4 25.5q1 15 0 31zM280 492q0 8 16 18l16 11q1 7 -11.5 7.5t-12.5 14.5q2 14 4.5 27t10.5 13q5 0 14.5 -3.5t20 -10t17.5 -19t5 -29.5 q-2 -35 -22 -44t-32 -6q-26 2 -26 21zM280 574q-5 -8 -2.5 -29t1.5 -30q-4 -4 -4 -6.5t-2 -5.5q-1 -4 -1 -5q-1 5 -1 12v14q0 4 -2 9t-2 14q0 6 6 17q4 6 7 10z" />
<glyph unicode="&#x3c;" d="M203 250q-2 3 -7 13t-9.5 20t-8 21t-2.5 16q4 12 7 18t10 6h38q4 0 20 9t37.5 19t41.5 20.5t28 13.5l23.5 11.5t31.5 16.5q19 8 38 20q9 -2 13 -3.5t6 -8.5q5 -5 5 -10t2 -13q4 -7 9.5 -11t5.5 -8q0 -3 -23.5 -13.5l-53.5 -23.5l-57 -24.5t-34 -13.5q-14 -5 -20.5 -4.5 t-18.5 -3.5q-10 -2 -18.5 -13.5t-0.5 -27.5q4 -8 19.5 -14.5l35 -14.5t42.5 -19t45 -25l7 -5q8 -5 12.5 -5t0.5 -3q-1 -2 -1 -4q3 -2 5.5 -5t6.5 -7q8 -1 22.5 -4.5t19.5 -14.5q7 -14 4.5 -19t-12.5 -15q-11 -8 -18.5 -8.5t-15.5 7.5q-4 4 -19 16l-34 27t-40.5 28t-39.5 20 l-3 4q-22 11 -45 15q-41 8 -47 9.5t-8 10.5zM443 65q0 2 -26.5 26.5t-70.5 52.5q-25 16 -53.5 31l-50 26.5t-36.5 18t-13 3.5q1 -1 19.5 -8l43.5 -17l50.5 -21t43.5 -23q17 -13 35 -29t30.5 -29.5l21 -22.5t6.5 -8zM465 361q-5 -8 -21 -15l-31 -14q-20 -7 -43 -16l22 15 q5 1 12 3q14 4 19 5q4 0 11 3.5t13 7.5z" />
<glyph unicode="=" horiz-adv-x="592" d="M125 157q-4 17 7.5 29.5t26.5 16.5q13 4 24 -4t17 -8h149q5 0 14.5 1t21.5 4t24 5.5t17 2.5q14 0 22.5 -15.5t6.5 -33.5q-5 -16 -17.5 -23t-22.5 -7q-8 0 -14 3.5t-13 3.5q-4 0 -37.5 1t-72.5 2t-72.5 2t-34.5 1q-5 0 -23 -1t-23 20zM395 104q-36 -3 -66 -3 q-24 -3 -47 -1.5t-31 4.5h144zM125 302q-4 16 7.5 29t26.5 16q13 4 24 -4t17 -8h149q5 0 14.5 2l21.5 4.5t24 5.5t17 3q14 0 22.5 -16.5t6.5 -34.5q-5 -15 -17.5 -22.5t-22.5 -7.5q-8 0 -14 3.5t-13 3.5q-4 0 -37.5 1.5t-72.5 2t-72.5 1.5t-34.5 1q-5 0 -23 -1t-23 21z M472 327q6 -11 4.5 -22t-4.5 -19q-5 -11 -11 -19l2 2l6 15q3 4 3 11.5v14.5v17z" />
<glyph unicode="&#x3e;" horiz-adv-x="602" d="M482 320q2 -12 -10 -37t-15 -33q-4 -9 -9.5 -10.5t-45.5 -9.5q-22 -4 -45 -15l-2 -4q-20 -7 -42 -20t-41 -28l-34 -27t-19 -16q-12 -13 -31 1q-12 9 -14 14.5t5 19.5q4 11 19 14.5t23 4.5q5 7 12 12l-1 4q-5 3 0 3t13 5l8 4q21 15 44 26t42.5 19t34 14.5t19.5 14.5 q9 16 0.5 27.5t-19.5 13.5q-11 4 -17.5 3.5t-21.5 5.5q-6 1 -33 12.5l-57 24.5l-53.5 24t-23.5 13q0 4 5.5 8.5t9.5 10.5q2 9 1.5 13.5t3.5 9.5q3 7 6.5 8.5t12.5 4.5q19 -13 38 -21l57 -28q7 -3 26 -13l40 -20.5l39 -19t22 -8.5h36q10 0 11.5 -6.5t5.5 -18.5zM494 258 q-4 -11 -10 -17q-2 -7 -10.5 -14t-18.5 -11q-55 -15 -98 -40t-74.5 -49t-48 -42.5t-19.5 -19.5q0 -1 8.5 7.5t21 22.5t30.5 30t35 29q18 12 44 22.5t49.5 21t42 17t21.5 8.5l8 8t8 12q6 7 11 15z" />
<glyph unicode="?" horiz-adv-x="592" d="M285 203q0 -6 -4 -8q-3 -5 -8.5 -5.5t-14.5 3.5q-10 3 -12 9t0 13q2 8 6 15q0 11 3 23q1 8 2 19.5t1 18.5q0 17 -1.5 25.5t1.5 24.5q4 15 16 18.5t37 13.5q12 2 25.5 17t24.5 34t18.5 38t7.5 34q0 14 -6.5 23.5l-12.5 18.5q-8 8 -18 15q8 -5 14 -7q4 -1 5 0.5t-4 12.5 q-12 19 -22.5 26.5t-45.5 15.5q-18 4 -36 -2t-34.5 -17t-30 -24t-21.5 -20q-15 -16 -21 -24t6 -23q5 -10 2 -21.5t-11.5 -21t-18 -15t-14.5 -1.5q-12 9 -8.5 29t3.5 39q0 11 11.5 32t29.5 42t42.5 37.5t53.5 16.5q28 0 56.5 -5.5t54.5 -19t44 -38.5t24 -65q5 -39 -15 -75 t-46 -65q-33 -31 -74 -61v-54q0 -15 3 -24t4.5 -12.5t-1.5 -4.5t-15 -1zM316 568q-1 3 -12.5 3t-26 -3.5t-27.5 -7.5t-18 -8t-12 -7t-15 -5q-7 -4 -15 -6l8 8q11 11 16 15q6 3 20 9t33 10h6q17 0 31 -4q7 -1 12 -4zM440 409q2 -4 -1 -12t-8.5 -18t-11 -19t-6.5 -10 q-2 -4 -15.5 -15t-27 -24.5l-25 -25.5t-10.5 -17v-16.5t-1 -20.5q-2 -12 -2 -26v21q0 9 -4 27t-4 22q0 10 14 16q1 3 8 10l15 15.5t15.5 17.5t12.5 14q6 6 11.5 10t10.5 8q7 5 12.5 12.5t8.5 14.5q5 8 8 16zM231 68l12 6q12 4 12 20q-4 14 -6.5 13t2.5 5q7 7 20.5 3.5 t21.5 -3.5q24 0 42 -26q10 -12 -1 -32t-19 -33q-10 -15 -30 -11t-34 12q-14 11 -17 22.5t-3 23.5z" />
<glyph unicode="A" horiz-adv-x="592" d="M123 27q-9 2 -7 17t10 33.5t17.5 34.5t13.5 26q9 14 14.5 31t6.5 25q3 10 4 23t13 48q13 38 31 73t18 43q0 7 1.5 15.5t5.5 17.5q4 11 10 19.5t6 14.5q0 7 -4 16t-3 21q2 6 6.5 14.5t10.5 16t13 12.5t13 0q6 -6 9.5 -18t6.5 -25t4 -25t4 -17q2 -6 10.5 -26.5l19 -45 l21 -50t15.5 -42.5q6 -15 16.5 -43.5t22.5 -57l21.5 -52.5t12.5 -30q5 -13 18 -24.5t8 -24.5q-2 -16 -8.5 -22t-26.5 -2q-19 2 -25 18t-9 26q0 5 -4.5 15t-9 18.5t-10 17t-6.5 9.5q-5 4 -16.5 -4t-23.5 -14q-12 -7 -26.5 -4t-47.5 3q-32 0 -46 -5.5t-25 -5.5q-12 0 -16.5 9 t-13.5 7q-8 -2 -5.5 -9.5t-0.5 -17.5q-1 -8 -6.5 -26.5t-13.5 -30.5q-8 -14 -15.5 -9t-13.5 7zM372 235l-15 35.5t-26.5 59.5l-26.5 55t-16 26q-9 3 -11 -3t-9 -16q-6 -8 -13 -15t-4 -8l10.5 -6.5t5.5 -7.5q0 -1 -6 -17.5l-14.5 -38l-16 -42t-9.5 -29.5t-8 -19.5t-12 -19.5 t-9 -16.5t1 -8.5q7 -3 14 -4.5t27 5.5q19 6 28 10.5t13 0.5q11 -5 41 -5q7 0 18.5 -3t22 -5t17.5 -1t8 7q4 14 1.5 31.5t-11.5 34.5zM249 222q4 16 10 34q3 15 8.5 28.5t10.5 17.5q-3 -10 -4 -18q-1 -12 -7 -20q-1 -4 -4 -11t-7 -15zM263 205h8q7 0 12 2q7 2 11 -6t6 -15z M207 78q30 4 59 5q24 2 46 2.5t34 -2.5zM200 70q2 -18 -13 -39q-6 -8 -19 -19q0 3 3 6q1 4 4 6.5t7 5.5q5 6 12 23q2 7 6 17zM497 126q-4 1 -10 18t-16 42.5l-23 58.5l-28 69l-70 182l80 -193l27.5 -70.5l23 -58.5t14.5 -38t2 -10z" />
<glyph unicode="B" horiz-adv-x="587" d="M167 423q0 -4 -2 -7q-2 -4 -3 -6.5t-2 -4.5q-4 -4 2 -20t7 -27q5 -13 7 -21t-7 -11q-4 -4 -6.5 3t-6.5 11q-3 4 -8.5 14t-5.5 17q0 17 6 30q1 8 1.5 15t4.5 12q2 6 7.5 3t5.5 -8zM183 411q1 6 13 9t25 4q16 3 35 0q-17 -1 -29 -2q-13 -3 -21.5 -4t-10.5 -1 q-4 0 -6.5 -23.5t-2.5 -34.5q0 -5 -1 1t-1.5 17t-0.5 21.5v12.5zM381 284q-2 -5 4 -15q1 -5 5 -11l3 5q4 4 10 0q5 -5 8.5 -19.5t11.5 -28.5q8 -16 12 -36t4 -51q0 -15 -8.5 -31.5t-18 -29t-18.5 -22t-10 -12.5q-3 -3 -6.5 -1.5t-14.5 -1.5q-9 -1 -28 -1t-45 -4 q-23 -4 -61.5 -2t-65.5 7q-26 6 -31 25t-5 25q0 9 -1 15.5t-8 24.5q-4 8 -5 48t-1 87t1 85.5t1 45.5v35t-2 26q-2 6 -4 9.5t0 8.5q4 5 22 11.5t31 13.5q14 5 41 9q12 1 29 1q24 0 44 -1q16 -3 33 -3.5t23 -1.5q10 -6 22.5 -10.5t20.5 -6.5q11 -1 7.5 5t-2.5 13q2 7 7.5 -6.5 l9.5 -22.5l11 -22.5t12 -36.5q1 -18 -4.5 -40.5t-10.5 -26.5q-3 -4 -4 -16.5t-3 -14.5q-4 -10 -16 -25zM290 261q-10 0 -25 -1.5t-30 -2.5q-18 -1 -34 -1q-6 1 -10.5 3t-7.5 4q-5 1 -9 4l-11 -15q-10 -14 -14 -18q-4 -5 -5 -5h-2l-4 -93q4 19 7 37q4 13 6 25.5t3 16.5 q0 4 9 8l6 4l-2 -11q-4 -13 -4 -19q0 -8 1 -25.5t4 -27.5q4 -8 5.5 -25t-4.5 -18h-8t-8 8q-8 11 -8 22q-1 6 0 12v-30q0 -12 2 -22.5t7 -12.5q9 -6 19 -8.5t18 1.5q18 7 22 5q1 -2 18 -5t38 -3.5t42.5 1.5t33.5 9q14 6 25 20.5t19 31t10 33.5t-7 29q-19 24 -49.5 46.5 t-52.5 22.5zM277 451q-7 0 -19 -1t-24.5 -2.5t-21.5 -3.5l-9 -2q-2 -7 -6 1t-10 10q-4 1 -21 -1.5t-21 -5.5q-1 -1 -2 -21t-1 -43.5v-45.5v-27q0 -6 1 -15.5t1 -20.5v-24q6 0 13 3q15 4 11 15q-3 9 -5 20t6 15q5 0 20.5 0.5t35 0.5h37h23.5q13 0 24 -5.5t16 -9.5 q3 -2 7.5 -11.5t10.5 -9.5q2 0 5 4.5t7 12.5q4 7 8 18l-24 -11q4 6 11 12q4 7 8.5 16.5t8.5 24.5q4 26 4 49.5t-23 37.5q-23 15 -40 18.5t-31 1.5zM333 543q11 0 28 -10.5t33.5 -27.5t31.5 -38t20 -40q6 -22 3 -43.5t-7.5 -42t-10 -35.5t-8.5 -22q-1 -8 7.5 -14.5t18 -19.5 t17 -38.5t2.5 -65.5q-6 -40 -23 -69t-34 -48q-19 -22 -44 -36q7 6 17 13q17 13 36 38q19 27 28.5 59.5t13.5 67.5q2 18 -5 36.5t-16.5 34t-18.5 26.5t-9 12q-2 4 13 14q5 8 9 47.5t4 82.5q-1 22 -16.5 43t-36.5 39q-23 19 -53 37zM250 352q13 0 26.5 -0.5t18.5 -4.5l-82 5 h37zM190 124q0 24 1 43q2 18 2 32.5t4 15.5v-26q0 -11 0.5 -20.5t0.5 -13.5t-0.5 -8.5t-0.5 -10.5v-12l42 -12z" />
<glyph unicode="C" horiz-adv-x="591" d="M410 352q-6 5 -8.5 19.5t-6.5 20.5q-2 9 -8 19t-13 17q-4 1 -20 6.5t-36.5 9t-38.5 4t-26 -2.5q-8 -4 -25 -16t-33.5 -33t-28.5 -51t-11 -71q3 -83 46 -136t87 -60q21 -4 41.5 4.5t35.5 20t24.5 24t13.5 18.5q1 5 4 16.5t5.5 24t4 23.5t4.5 13q2 10 11 13.5t18 3.5 q7 0 13 -15t5 -30q-3 -8 -6 -30t-13.5 -48.5t-30 -49.5t-50.5 -34q-66 -19 -121.5 7.5t-92.5 93.5q-38 66 -36 139t26 139q13 34 35.5 54.5t43.5 31t37 13.5t22 3q8 0 23 3t22 7q7 3 7.5 -0.5t9.5 -6.5q3 -3 18 -16l34 -30.5t34.5 -35t21.5 -28.5q8 -20 1 -40.5t-11 -24.5 q-2 -3 -13 -2.5t-19 13.5zM452 329q4 0 8 4q4 2 15 16q5 9 1 34.5t-28 72.5q-13 22 -34 41t-41 31q-26 14 -52 25q9 0 17 -4q6 -3 15 -6.5t17 -7.5q18 -9 45 -33.5t48 -60.5q19 -35 19 -65.5t-4 -40.5q-2 -8 -14 -8q-7 0 -12 2zM196 333q8 31 22.5 50.5t28.5 30t23.5 12.5 t11.5 0q-21 -9 -41 -27q-15 -13 -28.5 -37t-15.5 -59q-4 -70 8.5 -105t12.5 -31q0 1 -7 16t-13.5 36.5t-9.5 51.5t8 62zM486 217q1 -18 0 -37l-7 -40.5t-19 -48.5q-14 -29 -35 -46.5t-44 -27.5q-26 -13 -54 -21q16 4 35 12l34.5 21.5t38.5 32.5q21 19 31 47t14 52q6 29 6 56 z" />
<glyph unicode="D" d="M136 457v11.5t2 12.5q0 7 2 14q3 14 16.5 20.5t27.5 6.5t43 -1.5t41 3.5q7 1 22.5 0.5t35.5 -5.5t39 -14.5t33 -25.5q14 -15 27.5 -50.5t23.5 -79t11.5 -88.5t-10.5 -76q-25 -65 -65.5 -108.5t-124.5 -43.5q-45 0 -69.5 7t-36 14.5t-14 16t-2.5 15.5q0 12 -1.5 37 t-1.5 34q0 5 -2.5 35l-5.5 68t-3.5 74t1.5 52q10 33 10.5 44.5t0.5 26.5zM172 454q0 -8 0.5 -15.5t0.5 -15.5q0 -10 0.5 -43t2.5 -72.5t3 -73t1 -38.5q0 -12 5.5 -33t6.5 -32q3 -12 1 -13.5t-5 -9.5q-5 -10 -1 -13.5t13 -8.5q7 -5 14 3q4 2 4 6q12 -1 22 -1q9 0 18.5 -1.5 t16.5 -1.5q6 -1 18.5 -3.5t28.5 2.5t36 23t40 56q20 39 21.5 81.5t-7.5 79t-23.5 67t-24.5 44.5q-14 13 -31 19t-35 6t-33.5 -3t-20.5 -5q-14 -5 -42 3q-14 4 -30 11v-18zM203 431q3 4 12.5 5t21.5 1q14 0 31 -2l-46 -5q-1 -12 -1 -25q-2 -11 -2 -22.5v-19.5q0 -9 -0.5 -45 t-2 -75.5t-3 -70t-3.5 -29.5q-2 0 -2.5 45t-1.5 99q-3 64 -3 144zM485 358q14 -71 4.5 -145.5t-61.5 -138.5q-26 -32 -56 -46t-56 -17q-32 -5 -60 0h23q20 0 35 6q16 2 51.5 19t80.5 73q23 29 31.5 71t11.5 83q1 46 -4 95z" />
<glyph unicode="E" horiz-adv-x="602" d="M360 449q-7 0 -36 -1t-62 -2q-39 -3 -85 -4q-2 -6 -2 -27.5v-46.5v-65q11 0 19 2q10 1 18.5 1t14.5 3q5 0 15.5 -1.5l22 -3t23 -1.5h16.5q10 2 27 8.5t28 4.5q9 -5 22 -9.5t10 -24.5q-1 -19 -5 -31t-25 -14q-19 -4 -25 -1.5t-14 6.5q-6 2 -20.5 2h-31.5t-32 -1t-18 -1 q-8 -4 -19 -1t-16 -2q-4 -1 -6 -15t-3.5 -30.5t-1 -33t2.5 -18.5q4 -10 4.5 -19.5t0.5 -12.5q0 -4 -4 -16.5t3 -16.5q6 -5 22.5 -0.5t24.5 4.5q6 0 26 -2t44 -5t45.5 -5t29.5 1q17 2 46 13t41 7q14 -3 17.5 -22.5t3.5 -31.5q-2 -12 -17.5 -22.5t-24.5 -10.5q-6 0 -16 1.5 t-23.5 4t-26 5.5t-17.5 3h-33.5h-64t-63 0.5t-33.5 0.5q-11 3 -18 16t-7 18q0 1 -2 21.5l-4.5 45t-4 47.5t-1.5 31q0 18 4 38.5t6 28.5q2 5 1 19t-2.5 30t-3.5 33.5t-2 28.5t1 30.5t3.5 41t7 38.5t11.5 22q7 3 28 4t46 0t46.5 -2t28.5 -1t20.5 1t26.5 3l25 4t18 5 q8 5 22 7.5t21 -1.5q10 -4 18.5 -21t6.5 -28q-2 -10 -8.5 -20.5t-23.5 -11.5q-15 -3 -34.5 0t-31.5 3zM295 423q-18 -3 -32 -6q-12 -4 -22.5 -5t-13.5 -4q-6 -3 -5 -18.5t6 -31.5q2 -10 13.5 -12l23 -4t20 -2t7.5 0q-4 -1 -18.5 -1t-33.5 -3q-20 -1 -47 -1q1 4 4 9q1 4 1 18 v34q0 12 2 27h95zM348 341q5 -1 12 -5q8 -4 16 -14zM223 208q-2 -1 5.5 1.5t20.5 4.5t25.5 3.5t17.5 -2.5q1 0 -8.5 -0.5t-23 -2.5t-25 -3t-12.5 -1zM198 220q4 -10 7 -20q4 -11 5.5 -24.5t4.5 -31.5q1 -17 1.5 -22t4.5 -5q2 0 6 6l-22 -4q-1 24 -3 46q-2 19 -3 34.5 t-1 20.5z" />
<glyph unicode="F" horiz-adv-x="595" d="M150 500q2 2 25.5 3.5t54 2l59 1t39.5 0.5q21 0 47 8.5t48 16.5q21 9 28.5 10.5t17.5 -6.5q3 -4 5.5 -13.5t2.5 -20t-3.5 -19t-9.5 -14.5q-15 -9 -31.5 -6.5t-20.5 6.5q-1 2 -19 2h-39t-39.5 -1t-22.5 -1h-17.5t-26 1t-26.5 1h-17q-19 0 -25 -19v-23v-35.5v-34v-18.5 q-3 -5 -3.5 -15t-0.5 -14q0 -2 2 -6t5 -8t6 -7.5t5 -2.5q4 5 11.5 7.5t16.5 6.5q3 1 13 1h21.5t20.5 -0.5t15 -0.5q7 0 27.5 4t33.5 8q14 3 26 -4t10 -16q-2 -8 -8.5 -17t-16.5 -13q-8 -1 -24 1.5t-26 -1.5q-5 -3 -19 -3h-31t-31.5 1.5t-17.5 1.5q-5 3 -11 3.5t-12 1.5 q-6 2 -15 2l11 -91v5q0 4 1.5 7.5t1.5 8.5q0 9 8 18q4 3 10 7l-6 -23q-4 -11 -6 -23t-2 -21q-1 -17 -3 -17q-1 0 -4 2q3 -5 3 -12v-12t1 -11q2 -8 8 -13t18 -13q12 -9 5.5 -15t-12.5 -9q-5 -3 -22.5 -1.5t-23.5 2.5q-13 4 -13 31v36.5t0.5 62.5t0.5 61.5v34.5v18.5 t-0.5 35.5t-0.5 38v27q0 18 3 38.5t3 22.5q0 5 -6 17.5t-2 16.5zM201 328q-3 1 -6.5 19.5t-5 40t2 37.5t18.5 12q5 -2 4 -10t-3 -17.5t-6 -18.5t-4 -11q2 -5 3 -13.5t1 -17.5t-1 -15.5t-3 -5.5zM230 428q4 -4 30 -5t55 -1q36 -3 82 0h-68q-24 0 -47 -1.5t-26 -1.5 q-5 0 -10 -11t-8.5 -24.5l-6 -23.5t-3.5 -9q-3 0 -3 13t1.5 27t2 26.5t1.5 10.5zM306 215q-7 -7 -25 -4q-11 0 -23 4h48zM229 128q-4 56 -5 80q-2 14 -6 21q4 -6 10 -13q2 -6 5 -16.5t3 -25.5v-33t-1 -37.5t-3 -30.5t-3 -14q-4 -3 -7 -3h-4q3 0 6 8q4 7 4.5 20.5t0.5 43.5z " />
<glyph unicode="G" horiz-adv-x="600" d="M415 322q-7 -4 -16 2q-19 11 -15.5 26.5t-5.5 26.5q-9 9 -22.5 29t-35.5 28q-20 6 -47.5 5t-60.5 -23q-17 -11 -27 -32.5t-16 -49.5t-8 -58.5t0 -59.5t14.5 -55t32.5 -47t42.5 -35.5t43.5 -15.5q44 -4 65 15t30 52q7 29 -2.5 42t-17.5 20q-7 8 -7.5 4t-8.5 -7 q-8 -4 -17.5 -7.5t-18.5 1.5q-9 2 -21.5 17t-5.5 34q7 20 23.5 19t45.5 -1q14 0 25 5.5t18 11.5q6 7 13 19q0 -1 2 -4q2 -4 3 -6.5t5 -5.5q6 -8 15 -17.5t6 -20.5q-1 -12 -3.5 -22t-2.5 -25q0 -7 1 -22t1 -30.5t-1 -30.5t-4 -21q-4 -5 -18.5 -18t-35.5 -28t-44.5 -25.5 t-44.5 -10.5t-54 11.5t-62.5 38.5t-51.5 74.5t-22 119.5t18.5 120t44.5 79.5t53.5 45t46.5 17.5q41 5 71.5 -5.5t48.5 -28.5q8 -8 19 -20.5t21 -26.5t16.5 -27t6.5 -22q2 -18 -8.5 -33t-19.5 -18zM296 537q11 1 24 0q12 -1 30.5 -7.5t44.5 -22.5q24 -16 37.5 -36.5 t22.5 -39.5q6 -20 9 -43v4q0 1 -0.5 2.5t-0.5 5.5q-4 5 -7.5 20.5t-13.5 29.5q-11 15 -33 33.5t-43 30.5q-19 12 -44.5 15.5t-25.5 7.5zM187 242q-4 45 5 74t18 48q11 22 26 36q-11 -19 -18 -41q-6 -19 -11.5 -45.5t-3.5 -57.5q3 -64 18 -86.5t31 -33.5q7 -6 15 -9t15 -4 q7 -3 14 -4q-7 -7 -13 -14q-12 -12 -16 -12q-3 0 -14.5 6t-25.5 23.5t-26.5 45.5t-13.5 74zM347 298q3 4 14 2.5t22 -1.5q12 -1 24 -1h-60zM427 291q2 6 7.5 1t11.5 -12.5t11.5 -15.5t6.5 -12q3 -3 6.5 -20t4.5 -39.5t1 -47.5t-4 -43q-5 -19 -17.5 -34.5t-27.5 -27.5 q-15 -15 -32 -27l27 28l20.5 20.5l13.5 13.5q5 7 6.5 22t1.5 34q0 11 1.5 27t1.5 34t-1.5 33t-4.5 20q-4 5 -9.5 13.5t-9.5 15.5z" />
<glyph unicode="H" horiz-adv-x="605" d="M487 507q7 -9 1 -15.5t-12 -6.5q-2 0 -6.5 -1t-6.5 -3q-2 -3 -3 -5l4 -6q11 -8 11 -18q0 -7 -6 -26t-6 -32v-27.5v-50.5v-65.5t-0.5 -65.5t-1 -52t-0.5 -29q0 -8 1.5 -18.5t6.5 -23t5.5 -21.5t-0.5 -15q-10 -8 -24.5 -15t-22.5 -4q-2 1 -5.5 12.5t0 25t4 27.5t0.5 18 q0 9 -0.5 31t-4.5 46.5t-4.5 43.5t-1.5 23q-1 3 -6 6t-8 6l-11 5q-1 -2 -6 -5q-4 -7 -9 -8q-5 -4 -11 -4.5t-32 -0.5q-13 0 -34 0.5t-38.5 2.5t-32.5 2.5t-18 0.5q-4 0 -13 2t-18 -3q-10 -8 -0.5 -19t9.5 -17q0 -4 -1 -24.5t-3 -43.5l-3 -63q3 -6 7 -13q4 -5 7 -11t3 -10 q0 -9 -14.5 -19.5t-28.5 -13.5q-9 -1 -13 4.5t-7 11.5t-5.5 13t-2.5 9v30t2.5 62.5t2.5 62.5v36q0 6 -5 36.5t-5.5 66.5t-0.5 69.5t6 46.5q7 14 18.5 21.5t25 9.5t23 2h14.5q4 0 4 -9v-9l-2 -110q0 29 -1 58q-1 19 -3.5 37.5t-3.5 18.5t-13 -4q-5 -1 -8 -1q1 -2 3 -5 q4 -15 4 -21q0 -11 -7 -35q-3 -13 -2.5 -26.5t0.5 -28.5q0 -16 2.5 -35t16.5 -14q4 2 7 7.5t4 10.5l3 15q0 -4 1 -10q2 -6 3 -11.5t5 -12.5q4 -14 15.5 -17.5t38.5 -3.5q22 0 50 6t35 1q7 -7 14 -15t15 -10q7 -5 11 -1.5t7 13.5q2 2 4 15t3 28t1 30v25q0 6 -1 20t-2.5 28.5 t0 28.5t4.5 17q2 5 13.5 12t24.5 13q17 7 34 17zM286 335q-20 -1 -36 -0.5t-21 8.5l106 -2zM212 193q8 -4 8 -20v-50q0 -20 -2 -38.5t-6 -31.5q-3 -18 -4 -33v5q0 3 0.5 5.5t2.5 7.5q3 11 3 30.5t-2 31.5q0 4 -1.5 20t-1.5 34v29t3 10zM494 348q0 4 0.5 16.5t0.5 27.5 q0 19 1 38q0 -53 1 -96q1 -38 3 -69t2 -37q0 -5 -2 -12.5t-2 -13.5q-1 -8 -1 -15q1 -27 1 -43v-53q-1 -3 -1 -17q0 -9 -1 -17v43v34t-1 22q-1 3 -2 16t-1 25.5v24v15.5v18.5v35.5t1 36.5t1 20.5z" />
<glyph unicode="I" horiz-adv-x="607" d="M374 525q6 -1 13 -1q5 -1 11 -1t9 -4q4 -4 6 -13t2 -17q0 -11 -3 -25v12v13t-1 16q-4 15 -22.5 14.5t-20.5 -4.5q-5 -3 -0.5 -6.5t12.5 -6.5q17 -6 22 -26q4 -10 -4.5 -19.5t-16.5 -16.5q-9 -10 -25.5 -6.5t-21.5 6.5q-13 5 -26 0q-6 -4 -6 -11v-22v-256v-18.5t1 -25 t1.5 -23.5t4.5 -11q5 -1 15.5 8t17.5 9q5 0 14 -7t14 -6q17 4 27 -6q7 -7 3.5 -22t-11.5 -27q-8 -14 -25.5 -14.5t-31.5 3.5q-15 2 -34 3.5t-35 1.5q-18 0 -46 -2.5t-33 2.5q-4 2 0 10t9 15.5t11 15t10 7.5q9 1 15.5 -2.5t15.5 -0.5q11 4 14.5 14.5t6.5 22.5v44t-1.5 86 t-2.5 88t-1 54q0 53 -17 75q-4 3 -15 3t-23.5 0.5t-21 5.5t-5.5 18q1 13 9 19t17 7.5t20 0t17 -1.5l29 -2t41 2q27 5 33 13.5t12 12.5q6 2 12.5 8.5t15.5 3.5q10 -3 10 -6.5t-8 -5.5q-7 -3 -10 0zM240 539q8 4 31.5 3.5t48.5 -3.5q30 -1 65 -4zM340 265q2 -48 3 -90t3 -47 q0 -3 0.5 -5t0.5 -3q0 -2 3 -5l-8 -2l-4 278zM353 107q4 13 16.5 9.5t29.5 -13.5q17 -8 16.5 -28.5t0.5 -22.5q2 -5 0.5 3.5t-1.5 15.5q0 6 -8 15t-12 12q-2 0 -8.5 1t-15 1t-13.5 1.5t-5 5.5z" />
<glyph unicode="J" horiz-adv-x="602" d="M425 466q0 -83 -2 -153q-1 -60 -2.5 -117t-4.5 -81q-9 -47 -43.5 -75.5t-68.5 -28.5t-70 23.5t-51 78.5q-10 26 -8 43t8 26.5t13 12.5t10 7q1 3 5 6t8 7l11 6l7 -16q-5 0 -10 -1q-8 -3 -9 -7q-4 -7 -4.5 -24t4.5 -43q7 -27 23 -36.5t26 -14.5q12 -6 26 -8q7 -3 16 -5 l-12 -10q5 0 12 2t16 2.5t19 4.5q24 7 24.5 18.5t8.5 40.5q4 8 4.5 35t2 63t1.5 74.5t-1.5 73t-1.5 58.5v27q5 11 14.5 26t15.5 15q7 0 9 -12t4 -18zM245 163q0 -14 11 -25.5t18 -17.5q4 -6 13 -9q6 -2 10 -2q-2 -3 -6 -6q-6 -3 -10 -3q-6 0 -15 7t-13 17q-5 8 -6.5 25.5 t-1.5 13.5zM453 430q0 -72 2 -132q0 -48 1 -95t-1 -58q-2 -20 -9 -36q-4 -7 -6 -15v4q0 2 5 11q3 5 5 17.5t2 17.5v146q0 61 1 140zM453 485q0 -3 -0.5 -2.5t-0.5 4.5q-3 3 -3 7l3 -1q0 -3 0.5 -3.5t0.5 -4.5zM445 517q-3 -4 -12.5 -7.5t-5.5 2.5q3 5 11 8t7 -3z" />
<glyph unicode="K" horiz-adv-x="604" d="M483 509q4 -3 5 -16.5t-4 -20.5q3 0 3 4q0 7 -3 14l-2 11h-4q-7 0 -11 1q-6 3 -8 6.5t-6 -0.5l-5 -3q4 -8 9 -15q3 -5 5.5 -11.5t1.5 -8.5q-3 -4 -12.5 -14.5t-22.5 -23.5t-27.5 -25.5l-25.5 -21.5q-19 -17 -43 -43.5t-29 -32.5q-6 -5 -6 -8v-3q27 -33 49 -63 q21 -24 38 -48l22 -31q4 -7 12 -18.5l17 -23.5l16 -21.5t9 -11.5q9 -5 15 -7t6 -9q1 -9 -1 -25t-16 -24q-24 -15 -35 0q-8 8 -14 22.5t-12 25.5q-4 4 -10.5 17t-16 28t-20 27.5t-15.5 21.5q-4 8 -15 23.5l-21.5 31t-20.5 28t-13 16.5q-4 3 -7.5 5t-4.5 3l-4 3 q-11 -13 -18 -23q-8 -10 -15.5 -17.5t-9.5 -11.5q-7 -5 -12 -12t-10 -17q-6 -8 -4 -10t2 -4v-12t1 -21.5l2 -22t1 -15.5q2 -8 2 -19.5t1 -17.5q0 -4 3 -11t3 -13q0 -7 -9 -15t-20 -13q-19 -6 -26 10q0 3 -0.5 26t-0.5 50v51v29q0 11 3.5 21.5t0.5 25.5q-1 13 -2 32t-1 25 q0 2 -2 14t-2.5 28t-1.5 30.5t-1 20.5q0 5 -1 14.5t-2.5 20.5t-2 20t-0.5 11q0 6 -3 14t3 15q2 7 13 16.5t19 13.5q4 1 5.5 3t5.5 2h6q5 6 10 9q10 8 13 8l8.5 -12.5t8.5 -13.5q0 -3 1 -20t1 -36t-1 -36.5t-1 -21.5q-2 -3 -3 -8.5t-2 -9.5q-3 -7 -4 -10q1 18 4 37q3 36 0 63 t-3 34t-5 11q-4 5 -17 5q-5 0 -9 -4q-1 -1 -1 -4q1 -4 5 -10q1 -5 3 -10.5t2 -9.5q0 -8 -6.5 -26t-6.5 -22q0 -2 2.5 -11t2.5 -14v-13.5t-0.5 -22.5t-0.5 -23.5v-14.5q0 -9 0.5 -16.5t-1.5 -10.5q-4 -1 -10.5 5.5t-8.5 9.5q-5 1 -5 -16t2 -34q5 -30 7 -30t14.5 11l25.5 23.5 t25 21.5t15 12q3 2 12.5 19t22.5 31q4 7 17.5 20.5l27.5 27l27 27t17 19.5q9 8 23.5 29t22.5 27q11 6 13 9l9 3q1 4 5 5q7 4 8 6q4 0 16.5 -3t13.5 -7zM242 208q-2 -4 -4 -10q-1 -2 -3 -7t-3 -8q-5 -8 -3.5 -26t3.5 -59q1 -21 -0.5 -33t-5.5 -22q-3 -8 -8 -12q1 3 3 6l5 10 q1 6 0 24.5t-1 23.5q0 1 -1 13t-3 24.5t-2.5 24t-0.5 14.5q0 4 12 21q6 6 12 16zM346 304q1 -6 26 -37.5t52.5 -71l51 -73.5t25.5 -41q4 -17 0 -34q-2 -9 -6 -17q0 1 2 7q0 4 1 8t1 8q0 8 -2 17t-2 13q0 1 -8 12t-17.5 26t-19.5 28.5t-19 23.5q-6 8 -20 30.5t-29 43.5z" />
<glyph unicode="L" horiz-adv-x="602" d="M187 533q15 -7 17.5 -32t-8.5 -32v-153v-54t1 -50.5t1 -38.5v-16q0 -11 2.5 -37.5t2.5 -30.5q0 -5 11.5 -4.5t17.5 0.5h150q11 0 38 7t40 7t22 -16t5 -33q-3 -17 -16.5 -23.5t-21.5 -6.5q-10 0 -16 3t-13 3q-3 0 -36 1.5t-73 2t-73 1.5t-35 1q-4 0 -19 5.5t-18 13.5 q-1 5 -3.5 37l-5.5 71t-5 75t-2 46v42.5t1.5 65t2 61t0.5 28.5q0 4 -5.5 15t-1.5 20q3 7 14.5 16.5t25.5 4.5zM239 133l-6 2q-1 0 -2.5 16.5t-2 42.5t-0.5 58.5v67.5q0 81 1 183zM427 -1q-34 -3 -64 -3h-49t-30 5zM506 54q-3 -28 -12 -36.5t-17 -10.5q-11 -1 -26 6 q4 -2 10 -2q12 0 19 3q5 3 9.5 9t8.5 13q5 7 8 18z" />
<glyph unicode="M" horiz-adv-x="607" d="M467 489q8 2 20 3t21.5 1t14.5 -3t-2 -8q-7 -3 -12 -8q-12 -10 -12 -25q0 -9 -1.5 -56.5t-2 -102.5t-1.5 -102.5t-1 -57.5q0 -19 9.5 -42t5.5 -35q-3 -18 -3 -21v-7h3q6 0 10 2q1 1 5 8q1 4 3 5q-6 -5 -8 -12q-11 -13 -13 -13q-5 -4 -5 -1t-4 9q-1 2 -7.5 2h-12.5 t-13.5 2.5t-8.5 10.5q-3 7 -3 25v44t1.5 54.5t1.5 55.5q4 50 0.5 89.5t-8.5 54.5q-6 14 -8.5 21.5t-8.5 4.5q-5 0 -18 -17.5t-17 -20.5q-3 -4 -5.5 -16.5t-2.5 -20.5v-32l9 -6l-57 -107l60 89l-42 -80l24 30l-17 -22q-7 -8 -13 -16.5l-9 -12.5q-5 -9 -7.5 -14t-7.5 -5 t-2.5 13.5t-2.5 14.5q-6 1 -20.5 -8.5t-26.5 -2.5q-12 10 -30.5 44.5t-38.5 63.5q-10 13 -22 33.5l-23.5 39t-22 32.5t-14.5 15q-9 4 -18 2t-12 -11q-2 -11 -2 -37t4 -41q1 -9 1.5 -45t3 -76l4.5 -72.5t4 -31.5q4 1 4 25v53t-1 54.5t3 33.5q7 13 13 31t15 19q3 0 5 -28 t2.5 -62.5t0 -65t-0.5 -34.5q-1 -6 -6 -16l-11 -21t-15.5 -17.5t-20.5 -2.5q-23 7 -24.5 12t0.5 15q0 5 0.5 41t2 78.5t2.5 79.5t3 44q3 7 4 21t3 28.5t3 25.5t1 15t-5.5 14t-10.5 21.5t-7 22t4 15.5q5 6 19.5 -10t31.5 -39l34 -45.5t27 -33.5q21 -19 32 -38t15 -25 q1 -3 3.5 -17.5t7.5 -28.5t13 -23t22 1q13 8 27.5 29t27.5 44.5l25.5 47.5t22.5 39q11 13 22 33.5t22.5 38.5t23 30.5t21.5 14.5zM272 294q-12 0 -16 18q-3 7 -3 15q7 -11 12 -18q3 -6 6.5 -11.5t0.5 -3.5zM271 330q-6 -8 -21 15.5t-31 53.5t-26.5 54t-8.5 18l17 -29.5 t29 -47.5zM529 489q2 -123 4 -218q0 -40 1 -79t1 -68t-1 -47t-3 -13q-3 5 -4 25.5t-2 51t-1 68.5v76q2 91 5 204z" />
<glyph unicode="N" horiz-adv-x="592" d="M178 63q-2 -5 -11.5 -16.5t-17.5 -15.5q-18 -2 -30 36q-3 10 -3 48v81t1.5 78.5t1.5 40.5q0 11 4 26.5t4 29.5q0 12 5.5 33t3.5 31q0 2 -3 11t-7.5 19t-7 19.5t-2.5 15.5q3 9 21 18t24 14q5 6 6.5 11.5t1.5 1.5v-10.5t5 -11.5q6 -5 15.5 -29t18.5 -35q3 -5 14.5 -29 l24 -51l24 -51t16.5 -31q8 -15 34 -45l26 -31q-1 -1 -5 -1q-5 -3 -6 -3t-5 -2q-6 -2 -4.5 -11t4.5 -20q2 -11 7 -20.5t13 -22.5q7 -14 16.5 -15.5t16.5 5.5q9 6 11 24t6 32q0 8 1 40t3 69t2.5 69.5t0.5 41.5q3 22 -4.5 47t-7.5 35q1 8 9.5 13t14.5 7q6 4 17 21l11 15 q1 -7 5 -14q3 -7 3.5 -13t3.5 -10q2 -7 -2.5 -21t-7.5 -39q-1 -12 -1.5 -42.5t-0.5 -69.5t-1.5 -79t-1.5 -71q0 -66 8 -93.5t4 -46.5q-1 -10 -10 -14t-19 -5.5t-20.5 0t-14.5 4.5q-5 2 -8.5 12.5t-6 21.5t-5 20.5t-3.5 10.5l-35 47q-2 5 -14.5 24.5t-29.5 49.5l-37 63.5 l-37.5 62l-30 49t-13.5 21.5q-7 5 -12.5 -0.5t-14.5 -11.5q-3 -3 -3.5 -14.5t0.5 -23.5q2 -15 3 -30q5 6 9 13q7 13 9 10q2 -8 -0.5 -25t-4.5 -46v-44.5t1 -57t1.5 -52.5t0.5 -28q2 -8 10 -20t6 -20zM168 25q5 6 16 12l9 9q-6 -9 -12 -15q-3 -6 -7.5 -10.5t-4.5 -7.5 q-1 -3 -2 3.5t1 8.5zM197 61q0 2 -0.5 13t-2.5 28.5t-2.5 41t-2.5 46.5q-4 54 -8 120q4 -18 10 -33q2 -14 5 -27t3 -17q-2 -4 -2 -31v-59v-82zM347 273q-1 0 -10 9q-4 9 -15.5 28t-32.5 59q-21 38 -42 72t-39 59q-19 27 -39 50q5 -1 12 -5q6 -3 11 -6.5t12 -7.5t16 -19 l19.5 -34l21 -39.5t19.5 -35.5t20.5 -37l22.5 -44zM477 76q2 -5 2 -8v-7q0 -6 -2 -7v22zM461 21q-5 -5 -12 -9l-10 -6.5t-8 -2.5q-11 -4 -13 -4h-7zM219 217l2 -8l-10 -8zM473 288v74t2 64.5t3.5 48t5.5 25.5q-1 -102 -1 -184v-186q0 -6 -4 -11t-4 -8q0 -4 -1 -7t-1 -4v-4 v192z" />
<glyph unicode="O" d="M294 466q-6 2 -30.5 -3t-51 -23.5t-49 -53t-24.5 -92.5q-4 -58 12 -97.5t40.5 -64t53 -35t52.5 -10.5q23 0 44 18t37 45.5t24.5 62t8.5 65.5t-8 63t-23 58.5t-36.5 45t-49.5 21.5zM366 497q51 -49 81 -147q6 -26 7 -58.5t-5 -67t-17 -68t-23 -59.5q-14 -25 -39 -45 t-58 -25.5t-72 5.5t-79 42q-38 32 -55 80t-18.5 101t10 103.5t31.5 84.5q17 34 49 49.5t63.5 21.5t53 6t21.5 3q-8 16 9 6.5t41 -32.5zM528 180q-5 2 -6 5t-1 8q0 2 4 6zM392 526q21 -15 38.5 -41.5t29.5 -55t19 -53l10 -34.5q1 -14 1.5 -41t-3.5 -61t-12.5 -70.5 t-25.5 -66.5t-44.5 -50.5t-53.5 -32.5q-31 -14 -65 -23q19 5 41 15q18 8 39.5 21.5t42.5 33.5q40 41 52.5 78t19.5 83q4 22 2 50.5t-6.5 58.5t-11 57.5t-14.5 48.5t-26.5 40t-39 34t-38 25.5t-20.5 11.5l-37 12q14 0 30 -5q14 -4 31.5 -13t40.5 -22zM245 429 q-19 -18 -35 -41q-14 -19 -23.5 -49t-4.5 -66q1 -38 7.5 -60.5t15 -35.5t17 -20l14.5 -12l22.5 -20.5t7.5 -14.5q-3 -2 -13 1t-22.5 9t-24.5 17t-20 26q-14 30 -21 81.5t7 97.5q7 22 19 39t25 28q14 12 29 20z" />
<glyph unicode="P" horiz-adv-x="596" d="M221 238q-6 0 -12 1.5t-10 3.5q-7 2 -10 3q-2 -23 -2 -42q-2 -18 -2 -33.5v-25.5q0 -15 3.5 -31t7.5 -20q3 -6 7 -17t4 -19q-3 -9 -9 -21.5t-29 1.5q-25 14 -31 32t-2 36q2 8 4.5 28l5 41t5 38t2.5 25q0 5 -2.5 22t-4.5 37t-2.5 42.5t-0.5 37.5q0 17 0.5 35t2 36t3 31.5 t1.5 16.5q0 9 5.5 18t13.5 11q5 2 25.5 2h46.5h48.5h31.5q10 0 33 -3.5t47.5 -19t43.5 -48.5t19 -92t-31.5 -85t-68.5 -35t-72 -7t-40 1q-12 -4 -17.5 -4t-13.5 4zM199 365q0 -7 -1 -16.5t-2 -20.5q-1 -12 -1 -26q8 -12 27 -6q4 1 9.5 1.5t8.5 3.5q5 1 9 1q21 -1 40 -1 q16 -3 31.5 -3h21.5q5 0 17 5.5t24 16.5t21.5 24.5t9.5 32.5q0 40 -11.5 55t-25.5 23q-7 4 -19 4.5t-23.5 0.5t-22.5 -0.5t-15 -0.5h-52q-8 0 -19.5 2.5t-17.5 2.5q-4 0 -6.5 1.5t-5.5 -5.5q-1 -3 -0.5 -16.5t1 -28.5t1.5 -30t1 -20zM215 442q10 5 16.5 -18.5t5.5 -42.5 q-3 -8 -7 -16t-8 -12q-6 -7 -10 -8q0 2 2 6q1 4 5 14q3 8 1.5 18.5t-1.5 19.5q0 8 -3.5 23t-0.5 16zM306 433q-3 -4 -8 -5q-12 -5 -22 1q-2 1 2 2.5t11 1.5h17zM310 323q-9 -6 -19 0q-7 3 -12 8zM214 223q7 -8 21.5 -11t28.5 -4q18 -3 37 0l-67 -10l-3 -107v42q0 16 -1 30.5 t-1 17.5q0 4 -2 10.5t-6 13.5zM484 317q-11 -27 -40.5 -56t-59.5 -33q15 10 28 17q13 6 24.5 15t19.5 17q15 19 26.5 55t8.5 63q0 28 -10 58t-25 44q-7 5 -10.5 10t-7.5 8q-3 4 -7 5q13 -7 22 -15q8 -9 16.5 -21t14.5 -27q11 -32 12 -71.5t-12 -68.5z" />
<glyph unicode="Q" horiz-adv-x="602" d="M337 536l27 -21q15 -9 31.5 -27t35.5 -42q17 -28 25.5 -64.5t11 -72.5t1 -64t-1.5 -38q0 -8 -4.5 -23t-10.5 -30.5t-12.5 -29t-6.5 -20.5q0 -12 12.5 -21t15.5 -14q5 -10 -9 -25q-4 -5 -13.5 -8t-14.5 -3q-6 0 -6.5 2t-10.5 9q-8 10 -11.5 10t-13.5 1q-11 1 -14.5 -3 t-14.5 -8q-4 -1 -17.5 -4t-31.5 -5t-37 0t-40 12q-19 7 -41.5 29.5t-42.5 57.5t-32 81t-6 100q5 54 23 91t37.5 60t38.5 35.5t26 16.5q7 3 22.5 5.5t32 3t29.5 0.5h17q6 0 6 4v5zM369 182q4 -9 4 -15.5t2 -9.5q0 -5 1 -9q7 -2 18.5 9t18.5 35q4 13 7.5 37.5t4 52.5t-3 56.5 t-14.5 48.5q-24 41 -43 57.5t-42 20.5q-11 1 -28 0.5t-36.5 -9.5t-38.5 -28t-35 -53q-15 -33 -18 -69t1.5 -67.5t13 -55t15.5 -31.5q6 -9 18.5 -19.5t27.5 -20t29.5 -16.5t24.5 -7q17 0 24 -2t17 9q8 8 12 13.5t3 21.5q-3 14 -2.5 20t-8.5 14q-19 15 -13 21q6 2 12 3t9 5 t2 10t5 6q5 0 6.5 -7.5t6.5 -20.5zM188 307q7 39 19 65t24.5 41t22 19t11.5 3q-20 -18 -34 -38q-12 -21 -23 -49t-6 -63q1 -37 7 -60t14 -36.5t14.5 -21t7.5 -9.5q4 -6 10 -12l5 -5q-24 16 -45 41q-15 20 -26 51.5t-1 73.5zM379 9q-4 -3 -21 -5t-36 -2q-21 -1 -49 0h31 q9 0 34.5 7.5t34.5 7.5l6 -4v-4zM470 24q-3 -3 -9 -3q-2 0 -3 3l-5 10t6 3q7 4 9.5 3t6.5 7q5 7 6 11.5t-3 21.5q-3 16 -7 27t-1 16q0 4 7 17t13.5 32.5t12 42t4.5 44.5q-4 42 -7.5 94.5t-38.5 107.5q-20 27 -41.5 46t-40.5 31q-23 15 -46 23q25 -8 53 -24q21 -14 45 -36.5 t44 -54.5q17 -34 26 -65.5t11 -58t1 -45t-1 -25.5q0 -8 -2 -23.5l-4.5 -34t-6.5 -35t-10 -21.5l-12 -15q1 -14 5 -27l4 -24t-1 -16q-3 -8 -7.5 -19t-7.5 -13z" />
<glyph unicode="R" d="M136 527q4 2 28.5 2h42.5q8 0 30.5 0.5t44 0.5t41 0.5t22.5 3.5q8 3 6 1.5t6 -5.5q10 -1 21.5 -7.5t26.5 -21.5q17 -13 33.5 -41t17.5 -70q2 -22 -10.5 -43.5t-28 -41t-30 -30t-15.5 -13.5q-4 -3 -2.5 -4.5t1.5 -7.5q0 -8 20 -63q5 -15 15.5 -30.5l21.5 -31l19.5 -28 t10.5 -17.5q4 -15 1 -24.5t-22 -18.5q-9 -5 -18.5 4.5t-18.5 24.5t-16 32.5l-12 30.5l-14 33l-18.5 43t-18.5 39.5t-16 21.5q-15 7 -27.5 1t-27.5 -8q-12 -4 -38.5 -4t-32.5 -3q-6 -5 -5 -20t3 -25q0 -5 -1 -16t-2 -24.5t-2.5 -25.5t-1.5 -18q0 -8 7.5 -25t6.5 -29 q-2 -13 -13.5 -22.5t-23.5 -6.5q-12 4 -12 5t-7 14q-4 8 -5 30t-1 46t1 45t1 26v44.5t-1 83.5t-1 84.5v46.5q0 15 3 36t11 26zM333 471q-10 -1 -14 -1.5t-7 -4.5q-7 -3 -28.5 -1.5t-29.5 1.5q-9 0 -18.5 -1.5t-17.5 -1.5q-10 0 -13.5 -1.5t-10.5 2.5q-16 6 -21 0 q-2 -5 -2 -16q0 -1 1 -10t2 -20.5t2.5 -22t1.5 -15.5q1 -10 2.5 -13t-2.5 -9q-3 -5 -7 -18t0 -17q4 -6 20 1t18 7q3 0 12.5 -2t22.5 -4t27.5 -5t24.5 -3q23 -1 43.5 2.5t33.5 15.5q14 12 24 31t6 37q-2 18 -9 33.5t-19 22.5q-22 13 -42 13zM194 433q0 2 6.5 2t14.5 -2l22 -4 h-14q-14 0 -20 -2q-7 -5 0 -17q2 -7 6 -13l-2 2q-6 6 -6 10q0 5 -5.5 12.5t-1.5 11.5zM203 376l6 -9q3 -4 12 -7t17 -6q11 -4 24 -5l-53 3l-13 9q0 2 1 6q4 6 4 12zM365 559q45 -24 69 -44t34.5 -40.5t12 -41.5t4.5 -46q1 -24 -7.5 -47.5t-21 -41.5t-23.5 -30.5t-12 -15.5 q-1 -5 4 -23.5t14 -40.5q8 -24 21 -54l-30 56q-13 22 -21 40t-8 22t13.5 17t32.5 28q20 17 26 64.5t-3 92.5q-5 23 -21.5 41.5t-35.5 33.5q-22 15 -48 30zM452 25q3 3 5.5 3t11.5 5q5 4 7.5 11t4.5 15l4 22q1 -5 1 -12q0 -13 -7 -26q-9 -16 -19 -19.5t-8 1.5zM190 217 q0 5 -0.5 15.5t7.5 7.5q10 -4 19.5 -9.5t20.5 -5.5q8 0 15.5 -9t-2.5 -10q-8 -1 -23 6l-9 5q-3 -7 -3 -16q0 -8 -1 -18.5t1 -23.5q0 -14 -3 -33l-6 -38t-7.5 -34t-8.5 -21q-6 -8 -23 4l-15 15q3 -2 11 -5q10 -3 16 -3t6 1t8 10q7 8 7.5 15t-0.5 22q0 7 -2 26t-3.5 40.5 t-3 38.5t-1.5 20z" />
<glyph unicode="S" horiz-adv-x="605" d="M421 383q-4 -3 -8 -3q-11 0 -18 7q-10 8 -9 16t-3 16q-5 10 -18.5 25t-27.5 22q-12 9 -41.5 7t-46.5 -6q-9 -1 -23 -7.5t-27 -15t-23 -18t-10 -20.5q0 -21 17 -36t23 -17q10 -2 8 -2t16 -8q17 -9 43.5 -13t40.5 -9q18 -6 35 -6q8 -2 19 0q-1 1 -1 2q0 6 1 9 q4 2 13.5 -4.5t23.5 -20.5q12 -14 31 -40t22 -63q4 -36 -15.5 -70t-45.5 -57q-14 -11 -37 -19.5t-49.5 -11t-54.5 0t-50 13.5q-23 10 -41 26t-32.5 36.5t-21.5 41t-7 35.5q0 16 6.5 23t12.5 11q9 3 18 0q0 1 -1 3q-4 4 -2 9q0 7 10 11q5 1 9 3q0 -2 -1 -6q-4 -6 -4 -13 q-1 -8 2 -13t8 -8q2 -4 7 -4.5t9 -10.5q4 -8 -1.5 -13.5t-5.5 -13.5q0 -9 5.5 -15.5l19.5 -23.5q8 -8 14 -15.5t15 -12t24 -7t39 -2.5q49 0 77 23t35 40q9 17 2 45.5t-23 42.5q-9 7 -28 12.5t-42.5 10t-46 8t-37.5 6.5l-32 9t-33 19.5t-26 38.5t-11 65q0 38 23.5 64.5t56 41 t68 18.5t56.5 0q24 -4 42 -17t33 -28t25.5 -30t12.5 -23q7 -19 -0.5 -36.5t-18.5 -21.5zM338 361q-13 1 -28 1h-23t-15 2q-6 0 -17.5 0.5t-23.5 3t-22.5 8t-14.5 16.5q-7 19 9 34t32 16q7 0 18 -0.5t19 -1.5q11 -3 21 -4h-40q-15 0 -28 -9.5t-4 -23.5q3 -5 14.5 -10.5 t26 -8.5l26.5 -5.5t15 -2.5q11 -3 22 -8zM434 370q4 3 8.5 4.5t14.5 8.5q6 5 8.5 16.5t-0.5 22.5q-2 12 -6 27l-4 8l-2 10q0 3 -3 9q-4 6 -7.5 13t-10.5 19q-9 11 -29 23t-43 22l-58 20q1 -1 6 -1h17q8 0 38 -12.5t45 -21.5q13 -8 30 -29.5t15 -25.5t2 -8q2 -4 3 -5l7 -4 q8 -3 8 -6l-5 -5q-3 -2 -5 -2q2 -11 5 -20q1 -10 1.5 -19.5t0.5 -14.5q0 -14 -11.5 -26t-14.5 -16q-4 -4 -10 0.5t-6 11.5zM423 323q5 3 14.5 -7.5t20.5 -24.5t20 -31t11 -28q3 -12 1.5 -35t-8 -50t-21.5 -54t-41 -46q-27 -19 -58.5 -27t-58.5 -10t-47 0.5t-21 2.5 q-4 3 16.5 1.5t39.5 -1.5t49 10.5t57 25.5q26 16 48.5 38t34.5 79q5 27 -0.5 53.5t-14.5 45.5q-10 22 -26 43l-11 7q-11 6 -5 8zM211 245q2 -2 9.5 -4t14.5 -3q7 -4 16 -6h-20q-8 0 -14 1t-11 1h-7.5t-9.5 1q-7 3 -11 4q3 -1 5 -7q6 -9 10 -17q3 -10 9 -27t11 -21 q6 -4 14.5 -7.5t15.5 -4.5q4 -1 11 -1h14q8 0 17 -3h-30q-12 0 -23 2t-19 9q-12 13 -23.5 43t-18.5 38q-5 7 -11.5 12t-2.5 5q5 0 24.5 -7t29.5 -8z" />
<glyph unicode="T" horiz-adv-x="582" d="M295 535h17t15 1q7 2 15 3h26t25 4q5 1 14.5 6.5t21 7.5t22.5 -2.5t15 -19.5q12 -35 6 -50t-24 -19q-16 -2 -20.5 -4t-13.5 5q-9 8 -22 6t-23 -3q-8 -4 -9 -5t-14 -1q-12 0 -16 3t-14 4q-4 0 -6.5 -0.5t-6.5 -0.5h-6v-350l7 -29q4 -10 6 -18.5t-2 -12.5 q-5 -6 -17.5 -12.5t-20.5 -4.5q-8 3 -17.5 22t-4.5 63q2 21 4.5 66t4.5 89.5t3 82.5t-1 47t-3 21.5t-3.5 24t-6.5 19t-11 7.5q-18 0 -21.5 -5t-11.5 -9q-2 -1 -12 -1t-21.5 0.5t-21.5 1t-13 3.5q-5 3 -20 18t-15 27q1 11 4 16.5t14 5.5q5 0 29.5 -1.5t54.5 -3t57 -2t37 -0.5 zM329 449q2 3 14.5 3h29t33.5 -1.5t27 -1.5q18 0 33 14q8 4 12 12q-2 -5 -8 -11q-7 -7 -18 -15q-5 -2 -20 -3t-32.5 -3t-32.5 -2h-18q-9 0 -9 -8v-43v-92t1 -103.5t1 -76.5q2 -24 0 -37t-5 -17q-4 -8 -10 -8q2 2 4 8q3 9 3 19v19t-0.5 44.5t-1.5 59t-1 67.5q-2 77 -2 176z " />
<glyph unicode="U" horiz-adv-x="608" d="M456 557q7 -1 15.5 -22.5t7.5 -32.5q-4 -10 -8 -37.5t-8 -42.5v-41.5v-70.5v-68v-33q1 -5 5 -23t4 -37q-2 -19 -31 -40.5t-92 -46.5q-32 -12 -61.5 -9.5t-55 13.5t-44.5 26t-30 26q-6 7 -11.5 31.5t-8.5 58t-3.5 69.5t-0.5 68v58v34q0 27 -7.5 51.5t-2.5 34.5 q6 11 19.5 19.5t21.5 10.5q18 3 30 -26q6 -11 -0.5 -28l-8.5 -22q-2 -4 -2 -32v-63.5t1 -68t1 -43.5q0 -21 4 -38t6 -30q5 -13 2 -17t-4 -7q0 -4 0.5 -10t8.5 -15q10 -9 18.5 -18t14.5 -6q5 1 5 -1.5t9 -9.5q5 -4 6.5 -8t9.5 -7t24 -2t48 6q32 6 48 23.5t22 40.5t6.5 49 t0.5 48q3 19 1.5 60l-3 83t-0.5 75.5t5 40.5q8 14 19.5 22t18.5 8zM216 249q2 19 3 64t0 94t-2 87t-1 40l8 -86q2 -35 3 -66.5t1 -46.5q0 -13 -1 -39t-1 -50q-1 -30 -1 -63q-4 3 -7 13q-7 15 -2 53zM500 498q4 -84 4 -157q0 -61 -2 -123.5t-11 -93.5q-17 -41 -49 -63 t-64 -34q-36 -14 -78 -18q19 4 38 11l39.5 13.5t47.5 21.5q23 13 36.5 31t21 36.5t9.5 34t5 22.5q0 2 0.5 18t1.5 38.5t1 51v58.5v153z" />
<glyph unicode="V" horiz-adv-x="608" d="M484 516q-2 -7 -9.5 -19.5t-12.5 -18.5q-3 -5 -7.5 -17l-10.5 -27t-11 -30t-9 -23q-4 -10 -16.5 -49.5l-26 -85t-27 -82t-14.5 -40.5q-5 -6 -3.5 -13.5t1.5 -23.5t-7.5 -22.5t-19.5 -8.5q-7 -2 -16 2t-16.5 10.5t-12.5 13t-7 10.5q-4 9 -12 28.5l-18 44.5l-23.5 58 l-39.5 102l-38.5 104.5l-22.5 62.5q-6 32 3.5 51t25.5 15q7 0 13 -10.5t11 -24t6 -26.5t1 -19q0 -15 11 -45t21 -68q5 -19 15.5 -43l20 -47t17 -39.5t11.5 -21.5q4 -9 1 -19t0 -17q4 -7 11.5 -24t12.5 -17q6 3 14 21.5l20 46.5q7 14 22 55.5t30 88.5l27.5 88.5t12.5 54.5 q4 28 12 45t18 21q5 1 12 -1.5t13.5 -9.5t12 -16t4.5 -15zM280 264q-2 5 -6 12q-5 11 -8 26q-1 4 -12.5 39.5t-26.5 76.5l-34 104q9 -25 19 -47q8 -19 14 -37t9 -20q1 -6 9 -29.5l16.5 -51t14.5 -49t5 -24.5zM501 505q2 -6 -8.5 -40l-26.5 -84l-35 -106.5l-37 -107l-31 -86 t-17 -38.5q-5 -9 -12.5 -12.5l-14.5 -6.5q-9 -4 -18 -5l18 8q4 1 4 11q0 3 -1 7h5q6 0 13 4q5 3 13 16.5t12 26.5q3 4 9 23.5l15.5 50t22 67l24.5 73.5z" />
<glyph unicode="W" horiz-adv-x="611" d="M105 550q4 -2 14 -13t10 -21t-1 -36t-4 -39q0 -7 2 -30t5 -50.5l5.5 -51t2.5 -33.5q0 -8 1.5 -23.5t5.5 -32t6 -28.5t6 -14q5 -4 3 -1t7 12q2 6 8.5 16t12.5 21.5l11.5 23t6.5 17.5q4 9 16.5 16.5t17.5 15.5q3 10 1.5 14.5t1.5 15.5q4 11 6.5 25.5t4.5 23.5q0 14 14 27.5 l18 17.5q3 1 7.5 6t6.5 8q4 1 7 -6.5t4 -12.5q3 -6 7 -25t5 -34q2 -12 12.5 -25t17.5 -25q8 -11 17 -26.5t9 -23.5q0 -9 -3.5 -9.5t-11.5 -0.5q-9 0 -6 -12t7 -25q2 -12 12 -19t24 -13q12 -8 11.5 3.5t4.5 32.5q1 11 6.5 50t10 84t7.5 83.5t3 49.5q0 23 14.5 45.5t21.5 22.5 q6 0 15 -10t13 -21q3 -11 -4.5 -33t-17.5 -41q-5 -9 -9 -50.5t-7.5 -89t-7 -90t-5.5 -54.5t-2 -27.5v-31.5t-3.5 -27.5t-13.5 -15.5q-9 -3 -17.5 9.5t-17 31t-14 36t-6.5 22.5q-1 6 -13.5 25l-26.5 42t-26.5 40.5t-16.5 20.5q-6 7 -16.5 20.5t-17.5 10.5q-8 -1 -11 -13 t1 -19q3 -10 8.5 -13.5t4.5 -13.5q0 -13 -7.5 -21.5l-21.5 -23.5q-10 -10 -17 -25.5l-15.5 -34.5t-15 -38t-12.5 -31q-12 -25 -25.5 -29.5t-27.5 1.5q-12 7 -12 21.5v18.5q0 5 -2 28t-5 48q-1 9 -5 35t-8.5 62l-9.5 76t-8.5 74t-6.5 58t-1 29q4 14 16 29t19 14zM170 450 q4 -26 8.5 -49.5t4.5 -26.5q0 -4 -1.5 -12t-5.5 -16q-4 -11 -6 -24v18v18.5t2 18.5q2 9 0 33l-4 48q-5 30 -9 63zM319 435q5 -1 16.5 -21.5l23.5 -44t20.5 -43.5t8.5 -21q0 -2 -2.5 5t-7.5 16.5t-9 18.5t-7 13q-2 4 -8.5 16t-15.5 26q-8 16 -19 35zM530 494q-2 -48 -6 -87 q-3 -33 -5 -63t-2 -39q-1 -8 -4.5 -40t-7 -69t-7.5 -69.5t-4 -43.5q-2 -43 -26 -47q-8 -2 -16 9l-7 10q0 -2 3 -3q3 -4 7 -6q12 -4 23 7q7 6 9.5 21t2.5 23q0 5 3.5 35t7 67.5t7 68.5t3.5 38q0 8 3 38t7 63q6 39 9 87zM189 53q6 10 21 38.5l31 61.5q19 36 38 80 q-3 -13 -7 -23q-2 -9 -4.5 -17t-6.5 -11q-1 -4 -10 -22t-19 -41.5t-21.5 -44.5t-18.5 -29q-16 -16 -23 -17t-6 5q5 4 9 3.5t17 16.5z" />
<glyph unicode="X" horiz-adv-x="605" d="M477 507q-2 -12 -15 -27q-6 -7 -27.5 -27.5t-30.5 -33.5q-6 -7 -13.5 -20l-16 -28t-17.5 -28t-14 -17l-11.5 -10t-8.5 -8q-5 -5 -9 -7l8 -9q1 0 4 1q8 4 11 8q4 3 11 0q3 -2 5 -4q-2 0 -4 -1q-1 -3 -3 -3.5t-3 -1.5q-5 -2 -5.5 -3.5t-1.5 -2.5q-2 -4 -4 -6l6 -9 q3 -3 14 -19.5t25.5 -34.5t28 -36.5t20.5 -26.5q13 -19 35 -37.5t26 -28.5q3 -20 -16 -32q-9 -9 -19.5 -9t-17.5 5q-7 4 -12.5 12t-10.5 17q-6 9 -16 26t-22 32q-6 8 -16 23.5l-21 32l-20 30.5t-10 19q-4 5 -4 21v15q-6 -4 -8 -6l-7.5 -7.5t-5.5 -2.5q-5 -1 -9 -9.5 t-8 -10.5q-6 -9 10 -11q9 -4 8 -5t-2 -9q-4 -8 -19 -27l-38 -48q-21 -27 -26.5 -47t-18.5 -35q-15 -15 -31.5 -4.5t-17.5 23.5q-3 14 8 28.5t20 29.5l17 23l23 30l21.5 27t13.5 14q6 5 16 18t14 17q6 6 10 15q4 7 5 11l-5 8q-3 5 -23.5 27.5t-36.5 42.5l-21 28.5l-28 36 t-26.5 36t-13.5 27.5q-4 20 15 35q10 7 23 13v4q0 2 6 -2l8 -8t5 -13l16.5 -35.5l19.5 -42.5q11 -19 24.5 -32t18.5 -20q9 -8 13.5 -15.5t3.5 -14.5q-2 -8 -5 -6t-7 -2q-5 -3 3.5 -12.5t13.5 -13.5q3 -7 6 -8q1 -3 1 -4l6 11q2 8 13 23t23 34l17.5 29l23.5 39.5l21.5 36.5 t12.5 22q6 9 17.5 21.5t15.5 14.5q0 5 7 9l7 2v-5q0 -3 5 -8q3 -6 13.5 -17.5t6.5 -26.5zM373 301q1 0 4 -2l6 -7q3 -3 5 -10.5t5 -14.5q0 -4 8 -16.5l17.5 -26.5l18.5 -27t13 -18q2 -6 -8.5 9l-25 35l-27 37l-15.5 21l-7 14.5t1 18.5q5 2 21 29t38 57l54 74zM277 412 q3 12 -6 31t-20 40q-12 20 -30 45q18 -25 30 -44l20 -33t10 -16q3 -4 -0.5 -15.5t-3.5 -7.5zM277 177q3 -7 -10.5 -29.5t-30 -45.5l-31.5 -43.5t-18 -21.5q-4 -6 -16 -10q-8 -1 -14 -2l14 20q3 -1 7 -1q7 0 15 7q4 4 19 23.5t28 42.5q18 26 37 60zM477 37q-2 -11 -4 -11 t-4 1l4 7q2 4 3 4t1 -1z" />
<glyph unicode="Y" horiz-adv-x="607" d="M299 328q1 0 9 10l17.5 21.5t18.5 24t13 16.5q3 8 11.5 23.5l19.5 34l21.5 36l15.5 25.5q11 17 22.5 25t17.5 3q4 -6 15.5 -15.5t11.5 -20.5t-18 -32l-31 -37q-7 -8 -25.5 -32l-39 -52t-36 -51.5t-19.5 -32.5q-3 -11 -4 -33t0 -46.5t2.5 -45t4.5 -26.5q1 -7 4.5 -21.5 t4 -27.5t-4 -23.5t-22.5 -10.5t-25.5 10.5t-8 23.5t1.5 27.5t2 21.5v32t-1.5 54t-2 51t-0.5 26q-1 3 -19.5 27l-40.5 53q-11 13 -26.5 36.5l-30.5 46.5t-24.5 43.5t-8.5 29.5q4 17 20.5 19t27.5 -7q5 -4 11.5 -16t11 -27l8.5 -27.5t8 -17.5q3 -5 12.5 -17t21 -24.5t21 -24.5 t12.5 -17q3 -10 3 -15t4 -12q1 -10 4 -10t10 2zM224 510q17 -29 32 -50q15 -19 24.5 -35.5t11.5 -20.5zM499 477q0 -2 -21.5 -35l-45.5 -70l-64 -94v-78q0 -31 -1.5 -62.5t-1.5 -47.5q0 -21 -4.5 -31t-10.5 -17q-8 -8 -15 -11l11 11q4 3 10 14q2 5 7 12q-3 55 -3 101 q-2 38 -2 70v35q0 4 22 34l49 70z" />
<glyph unicode="Z" horiz-adv-x="612" d="M158 559q13 -2 24 -4q8 -2 17.5 -2.5t14.5 -0.5q4 0 31.5 0.5t59 0.5t58 1t28.5 1q10 0 17 7.5t16 8.5q8 1 22.5 -14t14.5 -24q0 -11 -6 -29t-12 -24q-4 -4 -23.5 -31.5l-43.5 -61l-47 -64t-30 -38.5l-28 -34.5t-39.5 -51.5l-36 -50.5t-16.5 -24.5q0 -5 14 -9.5t23 -4.5 t16 3.5t14 7.5q8 3 21 -4t25 -8q5 -3 23.5 -1.5t39 3.5t39.5 6t27 8q17 10 38 4.5t21 -25.5q0 -21 -13 -37.5t-29 -20.5q-17 -2 -27 2t-26 4q-7 0 -35.5 1.5t-61.5 2.5t-61.5 2t-32.5 1q-11 0 -28.5 1t-23.5 11q-5 11 0.5 32.5t5.5 27.5q0 3 6.5 18.5t17.5 34.5l22.5 39 t19.5 28l33 40.5l54 67.5l51 65.5t24 30.5q3 3 7 14t-5 24q-8 13 -24.5 10t-24.5 -6q-8 -4 -13 -2t-17 -2q-7 -1 -31.5 -1h-53.5h-71v35q0 7 -3 17.5t1 14.5q2 4 7 2t10 -2zM481 518q6 -12 0.5 -28.5t-15 -32t-20 -30l-15.5 -21.5l-29 -41l-52 -72l-52 -71.5t-25 -41.5 q-4 -12 7 -12q5 0 12 4l-48 -7q2 3 6 8q4 4 6 8t6 10q1 4 16 23.5l36.5 48.5l46 61.5l47 61l38 49.5t18.5 26q5 6 8 15.5t7 19.5q1 10 2 22z" />
<glyph unicode="\" horiz-adv-x="550" d="M130 457q-24 30 -24 41q0 10 4.5 23t10.5 17q4 3 6.5 3.5t8.5 -6.5q1 -3 5 -7t10.5 -8.5t14.5 -16t16 -31.5q10 -21 34 -61.5l50.5 -82.5t50.5 -76t29 -43q4 -8 15.5 -25.5l24 -36.5l24 -37.5t16.5 -28.5q20 -35 7 -43q-4 -4 -11.5 4.5t-18.5 22.5t-21 29.5t-20 29.5 q-4 9 -23 35l-43.5 62l-52 75.5l-51 74.5t-41.5 58.5zM287 353l80 -114l49.5 -74t12.5 -28q-7 6 -29.5 39t-46.5 74z" />
<glyph unicode="^" horiz-adv-x="602" d="M272 414q12 3 37 -9.5t34 -15.5q8 -4 10 -9.5t9 -45.5q6 -22 17 -45l2 -3q8 -19 21 -40.5t28 -41.5t27.5 -35t16.5 -17q8 -10 7 -16t-10 -17q-8 -12 -13.5 -13.5t-19.5 5.5q-11 4 -14 19t-5 23q-8 5 -12 12l-4 -1q-4 -4 -4 0.5t-6 12.5l-2 7q-17 22 -27 45l-18 43t-15 34 t-14 20q-17 8 -28 -1t-15 -19q-3 -10 -2.5 -17t-4.5 -22l-13.5 -32.5l-25 -57.5l-24.5 -53.5t-13 -23.5q-3 0 -8 5.5t-11 9.5q-7 3 -12.5 2t-10.5 2q-7 4 -8 7.5t-5 12.5q13 19 22 38l27 57q4 7 13.5 26l20.5 40l20 39t9 22v37q0 8 6 10zM334 426q11 -4 17 -9q9 -3 15.5 -11 t10.5 -19q15 -55 39.5 -97.5t48.5 -74.5t43 -49t20 -19q1 0 -7.5 8.5l-22 21.5t-30 30.5t-28.5 35.5q-13 17 -24.5 43l-21 49.5t-16 42t-9.5 21.5q-3 4 -9 8t-11 8q-7 6 -15 11z" />
<glyph unicode="_" horiz-adv-x="512" d="M175 -29q5 -1 34.5 -0.5t61.5 0.5h82q6 0 19.5 7t28.5 1q13 -4 18.5 -21t4.5 -27q-3 -11 -9 -20.5t-18 -11.5q-13 -4 -17 -0.5t-12 3.5h-201q-12 0 -30 -0.5t-23 3.5q-8 3 -11 9q-3 4 -3 10l7 3q7 4 7 9q1 5 -8 11.5t-11 10.5q-4 2 -5 7t7 6q10 4 38 4t40 -4z" />
<glyph unicode="`" horiz-adv-x="594" d="M371 594q-8 0 -9.5 -2.5t-9.5 -2.5t-25 7q-10 3 -18 8q-16 13 -33 22l-25.5 15.5t-16.5 10.5q-11 4 -14 7.5t-12 7.5q-9 1 -21 9t-3 21q8 14 23 16.5t25 -9.5q9 -11 26 -25.5t29 -21.5q12 -5 23.5 -14.5t25.5 -16.5q15 -5 30 -18.5t5 -13.5zM259 615q11 -7 27 -13 q7 -4 15 -8l15 -9l-52 23l-20 11q-4 2 -8 3t-9 4q-5 1 -6 1q-4 0 -1.5 5.5t-2.5 8.5z" />
<glyph unicode="a" horiz-adv-x="592" d="M123 27q-9 2 -7 17t10 33.5t17.5 34.5t13.5 26q9 14 14.5 31t6.5 25q3 10 4 23t13 48q13 38 31 73t18 43q0 7 1.5 15.5t5.5 17.5q4 11 10 19.5t6 14.5q0 7 -4 16t-3 21q2 6 6.5 14.5t10.5 16t13 12.5t13 0q6 -6 9.5 -18t6.5 -25t4 -25t4 -17q2 -6 10.5 -26.5l19 -45 l21 -50t15.5 -42.5q6 -15 16.5 -43.5t22.5 -57l21.5 -52.5t12.5 -30q5 -13 18 -24.5t8 -24.5q-2 -16 -8.5 -22t-26.5 -2q-19 2 -25 18t-9 26q0 5 -4.5 15t-9 18.5t-10 17t-6.5 9.5q-5 4 -16.5 -4t-23.5 -14q-12 -7 -26.5 -4t-47.5 3q-32 0 -46 -5.5t-25 -5.5q-12 0 -16.5 9 t-13.5 7q-8 -2 -5.5 -9.5t-0.5 -17.5q-1 -8 -6.5 -26.5t-13.5 -30.5q-8 -14 -15.5 -9t-13.5 7zM372 235l-15 35.5t-26.5 59.5l-26.5 55t-16 26q-9 3 -11 -3t-9 -16q-6 -8 -13 -15t-4 -8l10.5 -6.5t5.5 -7.5q0 -1 -6 -17.5l-14.5 -38l-16 -42t-9.5 -29.5t-8 -19.5t-12 -19.5 t-9 -16.5t1 -8.5q7 -3 14 -4.5t27 5.5q19 6 28 10.5t13 0.5q11 -5 41 -5q7 0 18.5 -3t22 -5t17.5 -1t8 7q4 14 1.5 31.5t-11.5 34.5zM249 222q4 16 10 34q3 15 8.5 28.5t10.5 17.5q-3 -10 -4 -18q-1 -12 -7 -20q-1 -4 -4 -11t-7 -15zM263 205h8q7 0 12 2q7 2 11 -6t6 -15z M207 78q30 4 59 5q24 2 46 2.5t34 -2.5zM200 70q2 -18 -13 -39q-6 -8 -19 -19q0 3 3 6q1 4 4 6.5t7 5.5q5 6 12 23q2 7 6 17zM497 126q-4 1 -10 18t-16 42.5l-23 58.5l-28 69l-70 182l80 -193l27.5 -70.5l23 -58.5t14.5 -38t2 -10z" />
<glyph unicode="b" horiz-adv-x="596" d="M167 423q0 -4 -2 -7q-2 -4 -3 -6.5t-2 -4.5q-4 -4 2 -20t7 -27q5 -13 7 -21t-7 -11q-4 -4 -6.5 3t-6.5 11q-3 4 -8.5 14t-5.5 17q0 17 6 30q1 8 1.5 15t4.5 12q2 6 7.5 3t5.5 -8zM183 411q1 6 13 9t25 4q16 3 35 0q-17 -1 -29 -2q-13 -3 -21.5 -4t-10.5 -1 q-4 0 -6.5 -23.5t-2.5 -34.5q0 -5 -1 1t-1.5 17t-0.5 21.5v12.5zM381 284q-2 -5 4 -15q1 -5 5 -11l3 5q4 4 10 0q5 -5 8.5 -19.5t11.5 -28.5q8 -16 12 -36t4 -51q0 -15 -8.5 -31.5t-18 -29t-18.5 -22t-10 -12.5q-3 -3 -6.5 -1.5t-14.5 -1.5q-9 -1 -28 -1t-45 -4 q-23 -4 -61.5 -2t-65.5 7q-26 6 -31 25t-5 25q0 9 -1 15.5t-8 24.5q-4 8 -5 48t-1 87t1 85.5t1 45.5v35t-2 26q-2 6 -4 9.5t0 8.5q4 5 22 11.5t31 13.5q14 5 41 9q12 1 29 1q24 0 44 -1q16 -3 33 -3.5t23 -1.5q10 -6 22.5 -10.5t20.5 -6.5q11 -1 7.5 5t-2.5 13q2 7 7.5 -6.5 l9.5 -22.5l11 -22.5t12 -36.5q1 -18 -4.5 -40.5t-10.5 -26.5q-3 -4 -4 -16.5t-3 -14.5q-4 -10 -16 -25zM290 261q-10 0 -25 -1.5t-30 -2.5q-18 -1 -34 -1q-6 1 -10.5 3t-7.5 4q-5 1 -9 4l-11 -15q-10 -14 -14 -18q-4 -5 -5 -5h-2l-4 -93q4 19 7 37q4 13 6 25.5t3 16.5 q0 4 9 8l6 4l-2 -11q-4 -13 -4 -19q0 -8 1 -25.5t4 -27.5q4 -8 5.5 -25t-4.5 -18h-8t-8 8q-8 11 -8 22q-1 6 0 12v-30q0 -12 2 -22.5t7 -12.5q9 -6 19 -8.5t18 1.5q18 7 22 5q1 -2 18 -5t38 -3.5t42.5 1.5t33.5 9q14 6 25 20.5t19 31t10 33.5t-7 29q-19 24 -49.5 46.5 t-52.5 22.5zM277 451q-7 0 -19 -1t-24.5 -2.5t-21.5 -3.5l-9 -2q-2 -7 -6 1t-10 10q-4 1 -21 -1.5t-21 -5.5q-1 -1 -2 -21t-1 -43.5v-45.5v-27q0 -6 1 -15.5t1 -20.5v-24q6 0 13 3q15 4 11 15q-3 9 -5 20t6 15q5 0 20.5 0.5t35 0.5h37h23.5q13 0 24 -5.5t16 -9.5 q3 -2 7.5 -11.5t10.5 -9.5q2 0 5 4.5t7 12.5q4 7 8 18l-24 -11q4 6 11 12q4 7 8.5 16.5t8.5 24.5q4 26 4 49.5t-23 37.5q-23 15 -40 18.5t-31 1.5zM333 543q11 0 28 -10.5t33.5 -27.5t31.5 -38t20 -40q6 -22 3 -43.5t-7.5 -42t-10 -35.5t-8.5 -22q-1 -8 7.5 -14.5t18 -19.5 t17 -38.5t2.5 -65.5q-6 -40 -23 -69t-34 -48q-19 -22 -44 -36q7 6 17 13q17 13 36 38q19 27 28.5 59.5t13.5 67.5q2 18 -5 36.5t-16.5 34t-18.5 26.5t-9 12q-2 4 13 14q5 8 9 47.5t4 82.5q-1 22 -16.5 43t-36.5 39q-23 19 -53 37zM250 352q13 0 26.5 -0.5t18.5 -4.5l-82 5 h37zM190 124q0 24 1 43q2 18 2 32.5t4 15.5v-26q0 -11 0.5 -20.5t0.5 -13.5t-0.5 -8.5t-0.5 -10.5v-12l42 -12z" />
<glyph unicode="c" horiz-adv-x="597" d="M410 352q-6 5 -8.5 19.5t-6.5 20.5q-2 9 -8 19t-13 17q-4 1 -20 6.5t-36.5 9t-38.5 4t-26 -2.5q-8 -4 -25 -16t-33.5 -33t-28.5 -51t-11 -71q3 -83 46 -136t87 -60q21 -4 41.5 4.5t35.5 20t24.5 24t13.5 18.5q1 5 4 16.5t5.5 24t4 23.5t4.5 13q2 10 11 13.5t18 3.5 q7 0 13 -15t5 -30q-3 -8 -6 -30t-13.5 -48.5t-30 -49.5t-50.5 -34q-66 -19 -121.5 7.5t-92.5 93.5q-38 66 -36 139t26 139q13 34 35.5 54.5t43.5 31t37 13.5t22 3q8 0 23 3t22 7q7 3 7.5 -0.5t9.5 -6.5q3 -3 18 -16l34 -30.5t34.5 -35t21.5 -28.5q8 -20 1 -40.5t-11 -24.5 q-2 -3 -13 -2.5t-19 13.5zM452 329q4 0 8 4q4 2 15 16q5 9 1 34.5t-28 72.5q-13 22 -34 41t-41 31q-26 14 -52 25q9 0 17 -4q6 -3 15 -6.5t17 -7.5q18 -9 45 -33.5t48 -60.5q19 -35 19 -65.5t-4 -40.5q-2 -8 -14 -8q-7 0 -12 2zM196 333q8 31 22.5 50.5t28.5 30t23.5 12.5 t11.5 0q-21 -9 -41 -27q-15 -13 -28.5 -37t-15.5 -59q-4 -70 8.5 -105t12.5 -31q0 1 -7 16t-13.5 36.5t-9.5 51.5t8 62zM486 217q1 -18 0 -37l-7 -40.5t-19 -48.5q-14 -29 -35 -46.5t-44 -27.5q-26 -13 -54 -21q16 4 35 12l34.5 21.5t38.5 32.5q21 19 31 47t14 52q6 29 6 56 z" />
<glyph unicode="d" horiz-adv-x="598" d="M136 457v11.5t2 12.5q0 7 2 14q3 14 16.5 20.5t27.5 6.5t43 -1.5t41 3.5q7 1 22.5 0.5t35.5 -5.5t39 -14.5t33 -25.5q14 -15 27.5 -50.5t23.5 -79t11.5 -88.5t-10.5 -76q-25 -65 -65.5 -108.5t-124.5 -43.5q-45 0 -69.5 7t-36 14.5t-14 16t-2.5 15.5q0 12 -1.5 37 t-1.5 34q0 5 -2.5 35l-5.5 68t-3.5 74t1.5 52q10 33 10.5 44.5t0.5 26.5zM172 454q0 -8 0.5 -15.5t0.5 -15.5q0 -10 0.5 -43t2.5 -72.5t3 -73t1 -38.5q0 -12 5.5 -33t6.5 -32q3 -12 1 -13.5t-5 -9.5q-5 -10 -1 -13.5t13 -8.5q7 -5 14 3q4 2 4 6q12 -1 22 -1q9 0 18.5 -1.5 t16.5 -1.5q6 -1 18.5 -3.5t28.5 2.5t36 23t40 56q20 39 21.5 81.5t-7.5 79t-23.5 67t-24.5 44.5q-14 13 -31 19t-35 6t-33.5 -3t-20.5 -5q-14 -5 -42 3q-14 4 -30 11v-18zM203 431q3 4 12.5 5t21.5 1q14 0 31 -2l-46 -5q-1 -12 -1 -25q-2 -11 -2 -22.5v-19.5q0 -9 -0.5 -45 t-2 -75.5t-3 -70t-3.5 -29.5q-2 0 -2.5 45t-1.5 99q-3 64 -3 144zM485 358q14 -71 4.5 -145.5t-61.5 -138.5q-26 -32 -56 -46t-56 -17q-32 -5 -60 0h23q20 0 35 6q16 2 51.5 19t80.5 73q23 29 31.5 71t11.5 83q1 46 -4 95z" />
<glyph unicode="e" d="M360 449q-7 0 -36 -1t-62 -2q-39 -3 -85 -4q-2 -6 -2 -27.5v-46.5v-65q11 0 19 2q10 1 18.5 1t14.5 3q5 0 15.5 -1.5l22 -3t23 -1.5h16.5q10 2 27 8.5t28 4.5q9 -5 22 -9.5t10 -24.5q-1 -19 -5 -31t-25 -14q-19 -4 -25 -1.5t-14 6.5q-6 2 -20.5 2h-31.5t-32 -1t-18 -1 q-8 -4 -19 -1t-16 -2q-4 -1 -6 -15t-3.5 -30.5t-1 -33t2.5 -18.5q4 -10 4.5 -19.5t0.5 -12.5q0 -4 -4 -16.5t3 -16.5q6 -5 22.5 -0.5t24.5 4.5q6 0 26 -2t44 -5t45.5 -5t29.5 1q17 2 46 13t41 7q14 -3 17.5 -22.5t3.5 -31.5q-2 -12 -17.5 -22.5t-24.5 -10.5q-6 0 -16 1.5 t-23.5 4t-26 5.5t-17.5 3h-33.5h-64t-63 0.5t-33.5 0.5q-11 3 -18 16t-7 18q0 1 -2 21.5l-4.5 45t-4 47.5t-1.5 31q0 18 4 38.5t6 28.5q2 5 1 19t-2.5 30t-3.5 33.5t-2 28.5t1 30.5t3.5 41t7 38.5t11.5 22q7 3 28 4t46 0t46.5 -2t28.5 -1t20.5 1t26.5 3l25 4t18 5 q8 5 22 7.5t21 -1.5q10 -4 18.5 -21t6.5 -28q-2 -10 -8.5 -20.5t-23.5 -11.5q-15 -3 -34.5 0t-31.5 3zM295 423q-18 -3 -32 -6q-12 -4 -22.5 -5t-13.5 -4q-6 -3 -5 -18.5t6 -31.5q2 -10 13.5 -12l23 -4t20 -2t7.5 0q-4 -1 -18.5 -1t-33.5 -3q-20 -1 -47 -1q1 4 4 9q1 4 1 18 v34q0 12 2 27h95zM348 341q5 -1 12 -5q8 -4 16 -14zM223 208q-2 -1 5.5 1.5t20.5 4.5t25.5 3.5t17.5 -2.5q1 0 -8.5 -0.5t-23 -2.5t-25 -3t-12.5 -1zM198 220q4 -10 7 -20q4 -11 5.5 -24.5t4.5 -31.5q1 -17 1.5 -22t4.5 -5q2 0 6 6l-22 -4q-1 24 -3 46q-2 19 -3 34.5 t-1 20.5z" />
<glyph unicode="f" horiz-adv-x="602" d="M150 500q2 2 25.5 3.5t54 2l59 1t39.5 0.5q21 0 47 8.5t48 16.5q21 9 28.5 10.5t17.5 -6.5q3 -4 5.5 -13.5t2.5 -20t-3.5 -19t-9.5 -14.5q-15 -9 -31.5 -6.5t-20.5 6.5q-1 2 -19 2h-39t-39.5 -1t-22.5 -1h-17.5t-26 1t-26.5 1h-17q-19 0 -25 -19v-23v-35.5v-34v-18.5 q-3 -5 -3.5 -15t-0.5 -14q0 -2 2 -6t5 -8t6 -7.5t5 -2.5q4 5 11.5 7.5t16.5 6.5q3 1 13 1h21.5t20.5 -0.5t15 -0.5q7 0 27.5 4t33.5 8q14 3 26 -4t10 -16q-2 -8 -8.5 -17t-16.5 -13q-8 -1 -24 1.5t-26 -1.5q-5 -3 -19 -3h-31t-31.5 1.5t-17.5 1.5q-5 3 -11 3.5t-12 1.5 q-6 2 -15 2l11 -91v5q0 4 1.5 7.5t1.5 8.5q0 9 8 18q4 3 10 7l-6 -23q-4 -11 -6 -23t-2 -21q-1 -17 -3 -17q-1 0 -4 2q3 -5 3 -12v-12t1 -11q2 -8 8 -13t18 -13q12 -9 5.5 -15t-12.5 -9q-5 -3 -22.5 -1.5t-23.5 2.5q-13 4 -13 31v36.5t0.5 62.5t0.5 61.5v34.5v18.5 t-0.5 35.5t-0.5 38v27q0 18 3 38.5t3 22.5q0 5 -6 17.5t-2 16.5zM201 328q-3 1 -6.5 19.5t-5 40t2 37.5t18.5 12q5 -2 4 -10t-3 -17.5t-6 -18.5t-4 -11q2 -5 3 -13.5t1 -17.5t-1 -15.5t-3 -5.5zM230 428q4 -4 30 -5t55 -1q36 -3 82 0h-68q-24 0 -47 -1.5t-26 -1.5 q-5 0 -10 -11t-8.5 -24.5l-6 -23.5t-3.5 -9q-3 0 -3 13t1.5 27t2 26.5t1.5 10.5zM306 215q-7 -7 -25 -4q-11 0 -23 4h48zM229 128q-4 56 -5 80q-2 14 -6 21q4 -6 10 -13q2 -6 5 -16.5t3 -25.5v-33t-1 -37.5t-3 -30.5t-3 -14q-4 -3 -7 -3h-4q3 0 6 8q4 7 4.5 20.5t0.5 43.5z " />
<glyph unicode="g" horiz-adv-x="602" d="M415 322q-7 -4 -16 2q-19 11 -15.5 26.5t-5.5 26.5q-9 9 -22.5 29t-35.5 28q-20 6 -47.5 5t-60.5 -23q-17 -11 -27 -32.5t-16 -49.5t-8 -58.5t0 -59.5t14.5 -55t32.5 -47t42.5 -35.5t43.5 -15.5q44 -4 65 15t30 52q7 29 -2.5 42t-17.5 20q-7 8 -7.5 4t-8.5 -7 q-8 -4 -17.5 -7.5t-18.5 1.5q-9 2 -21.5 17t-5.5 34q7 20 23.5 19t45.5 -1q14 0 25 5.5t18 11.5q6 7 13 19q0 -1 2 -4q2 -4 3 -6.5t5 -5.5q6 -8 15 -17.5t6 -20.5q-1 -12 -3.5 -22t-2.5 -25q0 -7 1 -22t1 -30.5t-1 -30.5t-4 -21q-4 -5 -18.5 -18t-35.5 -28t-44.5 -25.5 t-44.5 -10.5t-54 11.5t-62.5 38.5t-51.5 74.5t-22 119.5t18.5 120t44.5 79.5t53.5 45t46.5 17.5q41 5 71.5 -5.5t48.5 -28.5q8 -8 19 -20.5t21 -26.5t16.5 -27t6.5 -22q2 -18 -8.5 -33t-19.5 -18zM296 537q11 1 24 0q12 -1 30.5 -7.5t44.5 -22.5q24 -16 37.5 -36.5 t22.5 -39.5q6 -20 9 -43v4q0 1 -0.5 2.5t-0.5 5.5q-4 5 -7.5 20.5t-13.5 29.5q-11 15 -33 33.5t-43 30.5q-19 12 -44.5 15.5t-25.5 7.5zM187 242q-4 45 5 74t18 48q11 22 26 36q-11 -19 -18 -41q-6 -19 -11.5 -45.5t-3.5 -57.5q3 -64 18 -86.5t31 -33.5q7 -6 15 -9t15 -4 q7 -3 14 -4q-7 -7 -13 -14q-12 -12 -16 -12q-3 0 -14.5 6t-25.5 23.5t-26.5 45.5t-13.5 74zM347 298q3 4 14 2.5t22 -1.5q12 -1 24 -1h-60zM427 291q2 6 7.5 1t11.5 -12.5t11.5 -15.5t6.5 -12q3 -3 6.5 -20t4.5 -39.5t1 -47.5t-4 -43q-5 -19 -17.5 -34.5t-27.5 -27.5 q-15 -15 -32 -27l27 28l20.5 20.5l13.5 13.5q5 7 6.5 22t1.5 34q0 11 1.5 27t1.5 34t-1.5 33t-4.5 20q-4 5 -9.5 13.5t-9.5 15.5z" />
<glyph unicode="h" horiz-adv-x="607" d="M487 507q7 -9 1 -15.5t-12 -6.5q-2 0 -6.5 -1t-6.5 -3q-2 -3 -3 -5l4 -6q11 -8 11 -18q0 -7 -6 -26t-6 -32v-27.5v-50.5v-65.5t-0.5 -65.5t-1 -52t-0.5 -29q0 -8 1.5 -18.5t6.5 -23t5.5 -21.5t-0.5 -15q-10 -8 -24.5 -15t-22.5 -4q-2 1 -5.5 12.5t0 25t4 27.5t0.5 18 q0 9 -0.5 31t-4.5 46.5t-4.5 43.5t-1.5 23q-1 3 -6 6t-8 6l-11 5q-1 -2 -6 -5q-4 -7 -9 -8q-5 -4 -11 -4.5t-32 -0.5q-13 0 -34 0.5t-38.5 2.5t-32.5 2.5t-18 0.5q-4 0 -13 2t-18 -3q-10 -8 -0.5 -19t9.5 -17q0 -4 -1 -24.5t-3 -43.5l-3 -63q3 -6 7 -13q4 -5 7 -11t3 -10 q0 -9 -14.5 -19.5t-28.5 -13.5q-9 -1 -13 4.5t-7 11.5t-5.5 13t-2.5 9v30t2.5 62.5t2.5 62.5v36q0 6 -5 36.5t-5.5 66.5t-0.5 69.5t6 46.5q7 14 18.5 21.5t25 9.5t23 2h14.5q4 0 4 -9v-9l-2 -110q0 29 -1 58q-1 19 -3.5 37.5t-3.5 18.5t-13 -4q-5 -1 -8 -1q1 -2 3 -5 q4 -15 4 -21q0 -11 -7 -35q-3 -13 -2.5 -26.5t0.5 -28.5q0 -16 2.5 -35t16.5 -14q4 2 7 7.5t4 10.5l3 15q0 -4 1 -10q2 -6 3 -11.5t5 -12.5q4 -14 15.5 -17.5t38.5 -3.5q22 0 50 6t35 1q7 -7 14 -15t15 -10q7 -5 11 -1.5t7 13.5q2 2 4 15t3 28t1 30v25q0 6 -1 20t-2.5 28.5 t0 28.5t4.5 17q2 5 13.5 12t24.5 13q17 7 34 17zM286 335q-20 -1 -36 -0.5t-21 8.5l106 -2zM212 193q8 -4 8 -20v-50q0 -20 -2 -38.5t-6 -31.5q-3 -18 -4 -33v5q0 3 0.5 5.5t2.5 7.5q3 11 3 30.5t-2 31.5q0 4 -1.5 20t-1.5 34v29t3 10zM494 348q0 4 0.5 16.5t0.5 27.5 q0 19 1 38q0 -53 1 -96q1 -38 3 -69t2 -37q0 -5 -2 -12.5t-2 -13.5q-1 -8 -1 -15q1 -27 1 -43v-53q-1 -3 -1 -17q0 -9 -1 -17v43v34t-1 22q-1 3 -2 16t-1 25.5v24v15.5v18.5v35.5t1 36.5t1 20.5z" />
<glyph unicode="i" horiz-adv-x="602" d="M374 525q6 -1 13 -1q5 -1 11 -1t9 -4q4 -4 6 -13t2 -17q0 -11 -3 -25v12v13t-1 16q-4 15 -22.5 14.5t-20.5 -4.5q-5 -3 -0.5 -6.5t12.5 -6.5q17 -6 22 -26q4 -10 -4.5 -19.5t-16.5 -16.5q-9 -10 -25.5 -6.5t-21.5 6.5q-13 5 -26 0q-6 -4 -6 -11v-22v-256v-18.5t1 -25 t1.5 -23.5t4.5 -11q5 -1 15.5 8t17.5 9q5 0 14 -7t14 -6q17 4 27 -6q7 -7 3.5 -22t-11.5 -27q-8 -14 -25.5 -14.5t-31.5 3.5q-15 2 -34 3.5t-35 1.5q-18 0 -46 -2.5t-33 2.5q-4 2 0 10t9 15.5t11 15t10 7.5q9 1 15.5 -2.5t15.5 -0.5q11 4 14.5 14.5t6.5 22.5v44t-1.5 86 t-2.5 88t-1 54q0 53 -17 75q-4 3 -15 3t-23.5 0.5t-21 5.5t-5.5 18q1 13 9 19t17 7.5t20 0t17 -1.5l29 -2t41 2q27 5 33 13.5t12 12.5q6 2 12.5 8.5t15.5 3.5q10 -3 10 -6.5t-8 -5.5q-7 -3 -10 0zM240 539q8 4 31.5 3.5t48.5 -3.5q30 -1 65 -4zM340 265q2 -48 3 -90t3 -47 q0 -3 0.5 -5t0.5 -3q0 -2 3 -5l-8 -2l-4 278zM353 107q4 13 16.5 9.5t29.5 -13.5q17 -8 16.5 -28.5t0.5 -22.5q2 -5 0.5 3.5t-1.5 15.5q0 6 -8 15t-12 12q-2 0 -8.5 1t-15 1t-13.5 1.5t-5 5.5z" />
<glyph unicode="j" horiz-adv-x="601" d="M425 466q0 -83 -2 -153q-1 -60 -2.5 -117t-4.5 -81q-9 -47 -43.5 -75.5t-68.5 -28.5t-70 23.5t-51 78.5q-10 26 -8 43t8 26.5t13 12.5t10 7q1 3 5 6t8 7l11 6l7 -16q-5 0 -10 -1q-8 -3 -9 -7q-4 -7 -4.5 -24t4.5 -43q7 -27 23 -36.5t26 -14.5q12 -6 26 -8q7 -3 16 -5 l-12 -10q5 0 12 2t16 2.5t19 4.5q24 7 24.5 18.5t8.5 40.5q4 8 4.5 35t2 63t1.5 74.5t-1.5 73t-1.5 58.5v27q5 11 14.5 26t15.5 15q7 0 9 -12t4 -18zM245 163q0 -14 11 -25.5t18 -17.5q4 -6 13 -9q6 -2 10 -2q-2 -3 -6 -6q-6 -3 -10 -3q-6 0 -15 7t-13 17q-5 8 -6.5 25.5 t-1.5 13.5zM453 430q0 -72 2 -132q0 -48 1 -95t-1 -58q-2 -20 -9 -36q-4 -7 -6 -15v4q0 2 5 11q3 5 5 17.5t2 17.5v146q0 61 1 140zM453 485q0 -3 -0.5 -2.5t-0.5 4.5q-3 3 -3 7l3 -1q0 -3 0.5 -3.5t0.5 -4.5zM445 517q-3 -4 -12.5 -7.5t-5.5 2.5q3 5 11 8t7 -3z" />
<glyph unicode="k" horiz-adv-x="604" d="M483 509q4 -3 5 -16.5t-4 -20.5q3 0 3 4q0 7 -3 14l-2 11h-4q-7 0 -11 1q-6 3 -8 6.5t-6 -0.5l-5 -3q4 -8 9 -15q3 -5 5.5 -11.5t1.5 -8.5q-3 -4 -12.5 -14.5t-22.5 -23.5t-27.5 -25.5l-25.5 -21.5q-19 -17 -43 -43.5t-29 -32.5q-6 -5 -6 -8v-3q27 -33 49 -63 q21 -24 38 -48l22 -31q4 -7 12 -18.5l17 -23.5l16 -21.5t9 -11.5q9 -5 15 -7t6 -9q1 -9 -1 -25t-16 -24q-24 -15 -35 0q-8 8 -14 22.5t-12 25.5q-4 4 -10.5 17t-16 28t-20 27.5t-15.5 21.5q-4 8 -15 23.5l-21.5 31t-20.5 28t-13 16.5q-4 3 -7.5 5t-4.5 3l-4 3 q-11 -13 -18 -23q-8 -10 -15.5 -17.5t-9.5 -11.5q-7 -5 -12 -12t-10 -17q-6 -8 -4 -10t2 -4v-12t1 -21.5l2 -22t1 -15.5q2 -8 2 -19.5t1 -17.5q0 -4 3 -11t3 -13q0 -7 -9 -15t-20 -13q-19 -6 -26 10q0 3 -0.5 26t-0.5 50v51v29q0 11 3.5 21.5t0.5 25.5q-1 13 -2 32t-1 25 q0 2 -2 14t-2.5 28t-1.5 30.5t-1 20.5q0 5 -1 14.5t-2.5 20.5t-2 20t-0.5 11q0 6 -3 14t3 15q2 7 13 16.5t19 13.5q4 1 5.5 3t5.5 2h6q5 6 10 9q10 8 13 8l8.5 -12.5t8.5 -13.5q0 -3 1 -20t1 -36t-1 -36.5t-1 -21.5q-2 -3 -3 -8.5t-2 -9.5q-3 -7 -4 -10q1 18 4 37q3 36 0 63 t-3 34t-5 11q-4 5 -17 5q-5 0 -9 -4q-1 -1 -1 -4q1 -4 5 -10q1 -5 3 -10.5t2 -9.5q0 -8 -6.5 -26t-6.5 -22q0 -2 2.5 -11t2.5 -14v-13.5t-0.5 -22.5t-0.5 -23.5v-14.5q0 -9 0.5 -16.5t-1.5 -10.5q-4 -1 -10.5 5.5t-8.5 9.5q-5 1 -5 -16t2 -34q5 -30 7 -30t14.5 11l25.5 23.5 t25 21.5t15 12q3 2 12.5 19t22.5 31q4 7 17.5 20.5l27.5 27l27 27t17 19.5q9 8 23.5 29t22.5 27q11 6 13 9l9 3q1 4 5 5q7 4 8 6q4 0 16.5 -3t13.5 -7zM242 208q-2 -4 -4 -10q-1 -2 -3 -7t-3 -8q-5 -8 -3.5 -26t3.5 -59q1 -21 -0.5 -33t-5.5 -22q-3 -8 -8 -12q1 3 3 6l5 10 q1 6 0 24.5t-1 23.5q0 1 -1 13t-3 24.5t-2.5 24t-0.5 14.5q0 4 12 21q6 6 12 16zM346 304q1 -6 26 -37.5t52.5 -71l51 -73.5t25.5 -41q4 -17 0 -34q-2 -9 -6 -17q0 1 2 7q0 4 1 8t1 8q0 8 -2 17t-2 13q0 1 -8 12t-17.5 26t-19.5 28.5t-19 23.5q-6 8 -20 30.5t-29 43.5z" />
<glyph unicode="l" horiz-adv-x="604" d="M187 533q15 -7 17.5 -32t-8.5 -32v-153v-54t1 -50.5t1 -38.5v-16q0 -11 2.5 -37.5t2.5 -30.5q0 -5 11.5 -4.5t17.5 0.5h150q11 0 38 7t40 7t22 -16t5 -33q-3 -17 -16.5 -23.5t-21.5 -6.5q-10 0 -16 3t-13 3q-3 0 -36 1.5t-73 2t-73 1.5t-35 1q-4 0 -19 5.5t-18 13.5 q-1 5 -3.5 37l-5.5 71t-5 75t-2 46v42.5t1.5 65t2 61t0.5 28.5q0 4 -5.5 15t-1.5 20q3 7 14.5 16.5t25.5 4.5zM239 133l-6 2q-1 0 -2.5 16.5t-2 42.5t-0.5 58.5v67.5q0 81 1 183zM427 -1q-34 -3 -64 -3h-49t-30 5zM506 54q-3 -28 -12 -36.5t-17 -10.5q-11 -1 -26 6 q4 -2 10 -2q12 0 19 3q5 3 9.5 9t8.5 13q5 7 8 18z" />
<glyph unicode="m" horiz-adv-x="604" d="M467 489q8 2 20 3t21.5 1t14.5 -3t-2 -8q-7 -3 -12 -8q-12 -10 -12 -25q0 -9 -1.5 -56.5t-2 -102.5t-1.5 -102.5t-1 -57.5q0 -19 9.5 -42t5.5 -35q-3 -18 -3 -21v-7h3q6 0 10 2q1 1 5 8q1 4 3 5q-6 -5 -8 -12q-11 -13 -13 -13q-5 -4 -5 -1t-4 9q-1 2 -7.5 2h-12.5 t-13.5 2.5t-8.5 10.5q-3 7 -3 25v44t1.5 54.5t1.5 55.5q4 50 0.5 89.5t-8.5 54.5q-6 14 -8.5 21.5t-8.5 4.5q-5 0 -18 -17.5t-17 -20.5q-3 -4 -5.5 -16.5t-2.5 -20.5v-32l9 -6l-57 -107l60 89l-42 -80l24 30l-17 -22q-7 -8 -13 -16.5l-9 -12.5q-5 -9 -7.5 -14t-7.5 -5 t-2.5 13.5t-2.5 14.5q-6 1 -20.5 -8.5t-26.5 -2.5q-12 10 -30.5 44.5t-38.5 63.5q-10 13 -22 33.5l-23.5 39t-22 32.5t-14.5 15q-9 4 -18 2t-12 -11q-2 -11 -2 -37t4 -41q1 -9 1.5 -45t3 -76l4.5 -72.5t4 -31.5q4 1 4 25v53t-1 54.5t3 33.5q7 13 13 31t15 19q3 0 5 -28 t2.5 -62.5t0 -65t-0.5 -34.5q-1 -6 -6 -16l-11 -21t-15.5 -17.5t-20.5 -2.5q-23 7 -24.5 12t0.5 15q0 5 0.5 41t2 78.5t2.5 79.5t3 44q3 7 4 21t3 28.5t3 25.5t1 15t-5.5 14t-10.5 21.5t-7 22t4 15.5q5 6 19.5 -10t31.5 -39l34 -45.5t27 -33.5q21 -19 32 -38t15 -25 q1 -3 3.5 -17.5t7.5 -28.5t13 -23t22 1q13 8 27.5 29t27.5 44.5l25.5 47.5t22.5 39q11 13 22 33.5t22.5 38.5t23 30.5t21.5 14.5zM272 294q-12 0 -16 18q-3 7 -3 15q7 -11 12 -18q3 -6 6.5 -11.5t0.5 -3.5zM271 330q-6 -8 -21 15.5t-31 53.5t-26.5 54t-8.5 18l17 -29.5 t29 -47.5zM529 489q2 -123 4 -218q0 -40 1 -79t1 -68t-1 -47t-3 -13q-3 5 -4 25.5t-2 51t-1 68.5v76q2 91 5 204z" />
<glyph unicode="n" horiz-adv-x="602" d="M184 63q-2 -5 -11.5 -16.5t-17.5 -15.5q-18 -2 -30 36q-3 10 -3 48v81t1.5 78.5t1.5 40.5q0 11 4 26.5t4 29.5q0 12 5.5 33t3.5 31q0 2 -3 11t-7.5 19t-7 19.5t-2.5 15.5q3 9 21 18t24 14q5 6 6.5 11.5t1.5 1.5v-10.5t5 -11.5q6 -5 15.5 -29t18.5 -35q3 -5 14.5 -29 l24 -51l24 -51t16.5 -31q8 -15 34 -45l26 -31q-1 -1 -5 -1q-5 -3 -6 -3t-5 -2q-6 -2 -4.5 -11t4.5 -20q2 -11 7 -20.5t13 -22.5q7 -14 16.5 -15.5t16.5 5.5q9 6 11 24t6 32q0 8 1 40t3 69t2.5 69.5t0.5 41.5q3 22 -4.5 47t-7.5 35q1 8 9.5 13t14.5 7q6 4 17 21l11 15 q1 -7 5 -14q3 -7 3.5 -13t3.5 -10q2 -7 -2.5 -21t-7.5 -39q-1 -12 -1.5 -42.5t-0.5 -69.5t-1.5 -79t-1.5 -71q0 -66 8 -93.5t4 -46.5q-1 -10 -10 -14t-19 -5.5t-20.5 0t-14.5 4.5q-5 2 -8.5 12.5t-6 21.5t-5 20.5t-3.5 10.5l-35 47q-2 5 -14.5 24.5t-29.5 49.5l-37 63.5 l-37.5 62l-30 49t-13.5 21.5q-7 5 -12.5 -0.5t-14.5 -11.5q-3 -3 -3.5 -14.5t0.5 -23.5q2 -15 3 -30q5 6 9 13q7 13 9 10q2 -8 -0.5 -25t-4.5 -46v-44.5t1 -57t1.5 -52.5t0.5 -28q2 -8 10 -20t6 -20zM174 25q5 6 16 12l9 9q-6 -9 -12 -15q-3 -6 -7.5 -10.5t-4.5 -7.5 q-1 -3 -2 3.5t1 8.5zM203 61q0 2 -0.5 13t-2.5 28.5t-2.5 41t-2.5 46.5q-4 54 -8 120q4 -18 10 -33q2 -14 5 -27t3 -17q-2 -4 -2 -31v-59v-82zM353 273q-1 0 -10 9q-4 9 -15.5 28t-32.5 59q-21 38 -42 72t-39 59q-19 27 -39 50q5 -1 12 -5q6 -3 11 -6.5t12 -7.5t16 -19 l19.5 -34l21 -39.5t19.5 -35.5t20.5 -37l22.5 -44zM483 76q2 -5 2 -8v-7q0 -6 -2 -7v22zM467 21q-5 -5 -12 -9l-10 -6.5t-8 -2.5q-11 -4 -13 -4h-7zM225 217l2 -8l-10 -8zM479 288v74t2 64.5t3.5 48t5.5 25.5q-1 -102 -1 -184v-186q0 -6 -4 -11t-4 -8q0 -4 -1 -7t-1 -4v-4 v192z" />
<glyph unicode="o" d="M294 466q-6 2 -30.5 -3t-51 -23.5t-49 -53t-24.5 -92.5q-4 -58 12 -97.5t40.5 -64t53 -35t52.5 -10.5q23 0 44 18t37 45.5t24.5 62t8.5 65.5t-8 63t-23 58.5t-36.5 45t-49.5 21.5zM366 497q51 -49 81 -147q6 -26 7 -58.5t-5 -67t-17 -68t-23 -59.5q-14 -25 -39 -45 t-58 -25.5t-72 5.5t-79 42q-38 32 -55 80t-18.5 101t10 103.5t31.5 84.5q17 34 49 49.5t63.5 21.5t53 6t21.5 3q-8 16 9 6.5t41 -32.5zM528 180q-5 2 -6 5t-1 8q0 2 4 6zM392 526q21 -15 38.5 -41.5t29.5 -55t19 -53l10 -34.5q1 -14 1.5 -41t-3.5 -61t-12.5 -70.5 t-25.5 -66.5t-44.5 -50.5t-53.5 -32.5q-31 -14 -65 -23q19 5 41 15q18 8 39.5 21.5t42.5 33.5q40 41 52.5 78t19.5 83q4 22 2 50.5t-6.5 58.5t-11 57.5t-14.5 48.5t-26.5 40t-39 34t-38 25.5t-20.5 11.5l-37 12q14 0 30 -5q14 -4 31.5 -13t40.5 -22zM245 429 q-19 -18 -35 -41q-14 -19 -23.5 -49t-4.5 -66q1 -38 7.5 -60.5t15 -35.5t17 -20l14.5 -12l22.5 -20.5t7.5 -14.5q-3 -2 -13 1t-22.5 9t-24.5 17t-20 26q-14 30 -21 81.5t7 97.5q7 22 19 39t25 28q14 12 29 20z" />
<glyph unicode="p" horiz-adv-x="589" d="M221 238q-6 0 -12 1.5t-10 3.5q-7 2 -10 3q-2 -23 -2 -42q-2 -18 -2 -33.5v-25.5q0 -15 3.5 -31t7.5 -20q3 -6 7 -17t4 -19q-3 -9 -9 -21.5t-29 1.5q-25 14 -31 32t-2 36q2 8 4.5 28l5 41t5 38t2.5 25q0 5 -2.5 22t-4.5 37t-2.5 42.5t-0.5 37.5q0 17 0.5 35t2 36t3 31.5 t1.5 16.5q0 9 5.5 18t13.5 11q5 2 25.5 2h46.5h48.5h31.5q10 0 33 -3.5t47.5 -19t43.5 -48.5t19 -92t-31.5 -85t-68.5 -35t-72 -7t-40 1q-12 -4 -17.5 -4t-13.5 4zM199 365q0 -7 -1 -16.5t-2 -20.5q-1 -12 -1 -26q8 -12 27 -6q4 1 9.5 1.5t8.5 3.5q5 1 9 1q21 -1 40 -1 q16 -3 31.5 -3h21.5q5 0 17 5.5t24 16.5t21.5 24.5t9.5 32.5q0 40 -11.5 55t-25.5 23q-7 4 -19 4.5t-23.5 0.5t-22.5 -0.5t-15 -0.5h-52q-8 0 -19.5 2.5t-17.5 2.5q-4 0 -6.5 1.5t-5.5 -5.5q-1 -3 -0.5 -16.5t1 -28.5t1.5 -30t1 -20zM215 442q10 5 16.5 -18.5t5.5 -42.5 q-3 -8 -7 -16t-8 -12q-6 -7 -10 -8q0 2 2 6q1 4 5 14q3 8 1.5 18.5t-1.5 19.5q0 8 -3.5 23t-0.5 16zM306 433q-3 -4 -8 -5q-12 -5 -22 1q-2 1 2 2.5t11 1.5h17zM310 323q-9 -6 -19 0q-7 3 -12 8zM214 223q7 -8 21.5 -11t28.5 -4q18 -3 37 0l-67 -10l-3 -107v42q0 16 -1 30.5 t-1 17.5q0 4 -2 10.5t-6 13.5zM484 317q-11 -27 -40.5 -56t-59.5 -33q15 10 28 17q13 6 24.5 15t19.5 17q15 19 26.5 55t8.5 63q0 28 -10 58t-25 44q-7 5 -10.5 10t-7.5 8q-3 4 -7 5q13 -7 22 -15q8 -9 16.5 -21t14.5 -27q11 -32 12 -71.5t-12 -68.5z" />
<glyph unicode="q" d="M337 536l27 -21q15 -9 31.5 -27t35.5 -42q17 -28 25.5 -64.5t11 -72.5t1 -64t-1.5 -38q0 -8 -4.5 -23t-10.5 -30.5t-12.5 -29t-6.5 -20.5q0 -12 12.5 -21t15.5 -14q5 -10 -9 -25q-4 -5 -13.5 -8t-14.5 -3q-6 0 -6.5 2t-10.5 9q-8 10 -11.5 10t-13.5 1q-11 1 -14.5 -3 t-14.5 -8q-4 -1 -17.5 -4t-31.5 -5t-37 0t-40 12q-19 7 -41.5 29.5t-42.5 57.5t-32 81t-6 100q5 54 23 91t37.5 60t38.5 35.5t26 16.5q7 3 22.5 5.5t32 3t29.5 0.5h17q6 0 6 4v5zM369 182q4 -9 4 -15.5t2 -9.5q0 -5 1 -9q7 -2 18.5 9t18.5 35q4 13 7.5 37.5t4 52.5t-3 56.5 t-14.5 48.5q-24 41 -43 57.5t-42 20.5q-11 1 -28 0.5t-36.5 -9.5t-38.5 -28t-35 -53q-15 -33 -18 -69t1.5 -67.5t13 -55t15.5 -31.5q6 -9 18.5 -19.5t27.5 -20t29.5 -16.5t24.5 -7q17 0 24 -2t17 9q8 8 12 13.5t3 21.5q-3 14 -2.5 20t-8.5 14q-19 15 -13 21q6 2 12 3t9 5 t2 10t5 6q5 0 6.5 -7.5t6.5 -20.5zM188 307q7 39 19 65t24.5 41t22 19t11.5 3q-20 -18 -34 -38q-12 -21 -23 -49t-6 -63q1 -37 7 -60t14 -36.5t14.5 -21t7.5 -9.5q4 -6 10 -12l5 -5q-24 16 -45 41q-15 20 -26 51.5t-1 73.5zM379 9q-4 -3 -21 -5t-36 -2q-21 -1 -49 0h31 q9 0 34.5 7.5t34.5 7.5l6 -4v-4zM470 24q-3 -3 -9 -3q-2 0 -3 3l-5 10t6 3q7 4 9.5 3t6.5 7q5 7 6 11.5t-3 21.5q-3 16 -7 27t-1 16q0 4 7 17t13.5 32.5t12 42t4.5 44.5q-4 42 -7.5 94.5t-38.5 107.5q-20 27 -41.5 46t-40.5 31q-23 15 -46 23q25 -8 53 -24q21 -14 45 -36.5 t44 -54.5q17 -34 26 -65.5t11 -58t1 -45t-1 -25.5q0 -8 -2 -23.5l-4.5 -34t-6.5 -35t-10 -21.5l-12 -15q1 -14 5 -27l4 -24t-1 -16q-3 -8 -7.5 -19t-7.5 -13z" />
<glyph unicode="r" horiz-adv-x="598" d="M136 527q4 2 28.5 2h42.5q8 0 30.5 0.5t44 0.5t41 0.5t22.5 3.5q8 3 6 1.5t6 -5.5q10 -1 21.5 -7.5t26.5 -21.5q17 -13 33.5 -41t17.5 -70q2 -22 -10.5 -43.5t-28 -41t-30 -30t-15.5 -13.5q-4 -3 -2.5 -4.5t1.5 -7.5q0 -8 20 -63q5 -15 15.5 -30.5l21.5 -31l19.5 -28 t10.5 -17.5q4 -15 1 -24.5t-22 -18.5q-9 -5 -18.5 4.5t-18.5 24.5t-16 32.5l-12 30.5l-14 33l-18.5 43t-18.5 39.5t-16 21.5q-15 7 -27.5 1t-27.5 -8q-12 -4 -38.5 -4t-32.5 -3q-6 -5 -5 -20t3 -25q0 -5 -1 -16t-2 -24.5t-2.5 -25.5t-1.5 -18q0 -8 7.5 -25t6.5 -29 q-2 -13 -13.5 -22.5t-23.5 -6.5q-12 4 -12 5t-7 14q-4 8 -5 30t-1 46t1 45t1 26v44.5t-1 83.5t-1 84.5v46.5q0 15 3 36t11 26zM333 471q-10 -1 -14 -1.5t-7 -4.5q-7 -3 -28.5 -1.5t-29.5 1.5q-9 0 -18.5 -1.5t-17.5 -1.5q-10 0 -13.5 -1.5t-10.5 2.5q-16 6 -21 0 q-2 -5 -2 -16q0 -1 1 -10t2 -20.5t2.5 -22t1.5 -15.5q1 -10 2.5 -13t-2.5 -9q-3 -5 -7 -18t0 -17q4 -6 20 1t18 7q3 0 12.5 -2t22.5 -4t27.5 -5t24.5 -3q23 -1 43.5 2.5t33.5 15.5q14 12 24 31t6 37q-2 18 -9 33.5t-19 22.5q-22 13 -42 13zM194 433q0 2 6.5 2t14.5 -2l22 -4 h-14q-14 0 -20 -2q-7 -5 0 -17q2 -7 6 -13l-2 2q-6 6 -6 10q0 5 -5.5 12.5t-1.5 11.5zM203 376l6 -9q3 -4 12 -7t17 -6q11 -4 24 -5l-53 3l-13 9q0 2 1 6q4 6 4 12zM365 559q45 -24 69 -44t34.5 -40.5t12 -41.5t4.5 -46q1 -24 -7.5 -47.5t-21 -41.5t-23.5 -30.5t-12 -15.5 q-1 -5 4 -23.5t14 -40.5q8 -24 21 -54l-30 56q-13 22 -21 40t-8 22t13.5 17t32.5 28q20 17 26 64.5t-3 92.5q-5 23 -21.5 41.5t-35.5 33.5q-22 15 -48 30zM452 25q3 3 5.5 3t11.5 5q5 4 7.5 11t4.5 15l4 22q1 -5 1 -12q0 -13 -7 -26q-9 -16 -19 -19.5t-8 1.5zM190 217 q0 5 -0.5 15.5t7.5 7.5q10 -4 19.5 -9.5t20.5 -5.5q8 0 15.5 -9t-2.5 -10q-8 -1 -23 6l-9 5q-3 -7 -3 -16q0 -8 -1 -18.5t1 -23.5q0 -14 -3 -33l-6 -38t-7.5 -34t-8.5 -21q-6 -8 -23 4l-15 15q3 -2 11 -5q10 -3 16 -3t6 1t8 10q7 8 7.5 15t-0.5 22q0 7 -2 26t-3.5 40.5 t-3 38.5t-1.5 20z" />
<glyph unicode="s" horiz-adv-x="601" d="M421 383q-4 -3 -8 -3q-11 0 -18 7q-10 8 -9 16t-3 16q-5 10 -18.5 25t-27.5 22q-12 9 -41.5 7t-46.5 -6q-9 -1 -23 -7.5t-27 -15t-23 -18t-10 -20.5q0 -21 17 -36t23 -17q10 -2 8 -2t16 -8q17 -9 43.5 -13t40.5 -9q18 -6 35 -6q8 -2 19 0q-1 1 -1 2q0 6 1 9 q4 2 13.5 -4.5t23.5 -20.5q12 -14 31 -40t22 -63q4 -36 -15.5 -70t-45.5 -57q-14 -11 -37 -19.5t-49.5 -11t-54.5 0t-50 13.5q-23 10 -41 26t-32.5 36.5t-21.5 41t-7 35.5q0 16 6.5 23t12.5 11q9 3 18 0q0 1 -1 3q-4 4 -2 9q0 7 10 11q5 1 9 3q0 -2 -1 -6q-4 -6 -4 -13 q-1 -8 2 -13t8 -8q2 -4 7 -4.5t9 -10.5q4 -8 -1.5 -13.5t-5.5 -13.5q0 -9 5.5 -15.5l19.5 -23.5q8 -8 14 -15.5t15 -12t24 -7t39 -2.5q49 0 77 23t35 40q9 17 2 45.5t-23 42.5q-9 7 -28 12.5t-42.5 10t-46 8t-37.5 6.5l-32 9t-33 19.5t-26 38.5t-11 65q0 38 23.5 64.5t56 41 t68 18.5t56.5 0q24 -4 42 -17t33 -28t25.5 -30t12.5 -23q7 -19 -0.5 -36.5t-18.5 -21.5zM338 361q-13 1 -28 1h-23t-15 2q-6 0 -17.5 0.5t-23.5 3t-22.5 8t-14.5 16.5q-7 19 9 34t32 16q7 0 18 -0.5t19 -1.5q11 -3 21 -4h-40q-15 0 -28 -9.5t-4 -23.5q3 -5 14.5 -10.5 t26 -8.5l26.5 -5.5t15 -2.5q11 -3 22 -8zM434 370q4 3 8.5 4.5t14.5 8.5q6 5 8.5 16.5t-0.5 22.5q-2 12 -6 27l-4 8l-2 10q0 3 -3 9q-4 6 -7.5 13t-10.5 19q-9 11 -29 23t-43 22l-58 20q1 -1 6 -1h17q8 0 38 -12.5t45 -21.5q13 -8 30 -29.5t15 -25.5t2 -8q2 -4 3 -5l7 -4 q8 -3 8 -6l-5 -5q-3 -2 -5 -2q2 -11 5 -20q1 -10 1.5 -19.5t0.5 -14.5q0 -14 -11.5 -26t-14.5 -16q-4 -4 -10 0.5t-6 11.5zM423 323q5 3 14.5 -7.5t20.5 -24.5t20 -31t11 -28q3 -12 1.5 -35t-8 -50t-21.5 -54t-41 -46q-27 -19 -58.5 -27t-58.5 -10t-47 0.5t-21 2.5 q-4 3 16.5 1.5t39.5 -1.5t49 10.5t57 25.5q26 16 48.5 38t34.5 79q5 27 -0.5 53.5t-14.5 45.5q-10 22 -26 43l-11 7q-11 6 -5 8zM211 245q2 -2 9.5 -4t14.5 -3q7 -4 16 -6h-20q-8 0 -14 1t-11 1h-7.5t-9.5 1q-7 3 -11 4q3 -1 5 -7q6 -9 10 -17q3 -10 9 -27t11 -21 q6 -4 14.5 -7.5t15.5 -4.5q4 -1 11 -1h14q8 0 17 -3h-30q-12 0 -23 2t-19 9q-12 13 -23.5 43t-18.5 38q-5 7 -11.5 12t-2.5 5q5 0 24.5 -7t29.5 -8z" />
<glyph unicode="t" horiz-adv-x="610" d="M312 535h17t15 1q7 2 15 3h26t25 4q5 1 14.5 6.5t21 7.5t22.5 -2.5t15 -19.5q12 -35 6 -50t-24 -19q-16 -2 -20.5 -4t-13.5 5q-9 8 -22 6t-23 -3q-8 -4 -9 -5t-14 -1q-12 0 -16 3t-14 4q-4 0 -6.5 -0.5t-6.5 -0.5h-6v-350l7 -29q4 -10 6 -18.5t-2 -12.5 q-5 -6 -17.5 -12.5t-20.5 -4.5q-8 3 -17.5 22t-4.5 63q2 21 4.5 66t4.5 89.5t3 82.5t-1 47t-3 21.5t-3.5 24t-6.5 19t-11 7.5q-18 0 -21.5 -5t-11.5 -9q-2 -1 -12 -1t-21.5 0.5t-21.5 1t-13 3.5q-5 3 -20 18t-15 27q1 11 4 16.5t14 5.5q5 0 29.5 -1.5t54.5 -3t57 -2t37 -0.5 zM346 449q2 3 14.5 3h29t33.5 -1.5t27 -1.5q18 0 33 14q8 4 12 12q-2 -5 -8 -11q-7 -7 -18 -15q-5 -2 -20 -3t-32.5 -3t-32.5 -2h-18q-9 0 -9 -8v-43v-92t1 -103.5t1 -76.5q2 -24 0 -37t-5 -17q-4 -8 -10 -8q2 2 4 8q3 9 3 19v19t-0.5 44.5t-1.5 59t-1 67.5q-2 77 -2 176z " />
<glyph unicode="u" horiz-adv-x="607" d="M456 557q7 -1 15.5 -22.5t7.5 -32.5q-4 -10 -8 -37.5t-8 -42.5v-41.5v-70.5v-68v-33q1 -5 5 -23t4 -37q-2 -19 -31 -40.5t-92 -46.5q-32 -12 -61.5 -9.5t-55 13.5t-44.5 26t-30 26q-6 7 -11.5 31.5t-8.5 58t-3.5 69.5t-0.5 68v58v34q0 27 -7.5 51.5t-2.5 34.5 q6 11 19.5 19.5t21.5 10.5q18 3 30 -26q6 -11 -0.5 -28l-8.5 -22q-2 -4 -2 -32v-63.5t1 -68t1 -43.5q0 -21 4 -38t6 -30q5 -13 2 -17t-4 -7q0 -4 0.5 -10t8.5 -15q10 -9 18.5 -18t14.5 -6q5 1 5 -1.5t9 -9.5q5 -4 6.5 -8t9.5 -7t24 -2t48 6q32 6 48 23.5t22 40.5t6.5 49 t0.5 48q3 19 1.5 60l-3 83t-0.5 75.5t5 40.5q8 14 19.5 22t18.5 8zM216 249q2 19 3 64t0 94t-2 87t-1 40l8 -86q2 -35 3 -66.5t1 -46.5q0 -13 -1 -39t-1 -50q-1 -30 -1 -63q-4 3 -7 13q-7 15 -2 53zM500 498q4 -84 4 -157q0 -61 -2 -123.5t-11 -93.5q-17 -41 -49 -63 t-64 -34q-36 -14 -78 -18q19 4 38 11l39.5 13.5t47.5 21.5q23 13 36.5 31t21 36.5t9.5 34t5 22.5q0 2 0.5 18t1.5 38.5t1 51v58.5v153z" />
<glyph unicode="v" horiz-adv-x="607" d="M484 516q-2 -7 -9.5 -19.5t-12.5 -18.5q-3 -5 -7.5 -17l-10.5 -27t-11 -30t-9 -23q-4 -10 -16.5 -49.5l-26 -85t-27 -82t-14.5 -40.5q-5 -6 -3.5 -13.5t1.5 -23.5t-7.5 -22.5t-19.5 -8.5q-7 -2 -16 2t-16.5 10.5t-12.5 13t-7 10.5q-4 9 -12 28.5l-18 44.5l-23.5 58 l-39.5 102l-38.5 104.5l-22.5 62.5q-6 32 3.5 51t25.5 15q7 0 13 -10.5t11 -24t6 -26.5t1 -19q0 -15 11 -45t21 -68q5 -19 15.5 -43l20 -47t17 -39.5t11.5 -21.5q4 -9 1 -19t0 -17q4 -7 11.5 -24t12.5 -17q6 3 14 21.5l20 46.5q7 14 22 55.5t30 88.5l27.5 88.5t12.5 54.5 q4 28 12 45t18 21q5 1 12 -1.5t13.5 -9.5t12 -16t4.5 -15zM280 264q-2 5 -6 12q-5 11 -8 26q-1 4 -12.5 39.5t-26.5 76.5l-34 104q9 -25 19 -47q8 -19 14 -37t9 -20q1 -6 9 -29.5l16.5 -51t14.5 -49t5 -24.5zM501 505q2 -6 -8.5 -40l-26.5 -84l-35 -106.5l-37 -107l-31 -86 t-17 -38.5q-5 -9 -12.5 -12.5l-14.5 -6.5q-9 -4 -18 -5l18 8q4 1 4 11q0 3 -1 7h5q6 0 13 4q5 3 13 16.5t12 26.5q3 4 9 23.5l15.5 50t22 67l24.5 73.5z" />
<glyph unicode="w" horiz-adv-x="610" d="M105 550q4 -2 14 -13t10 -21t-1 -36t-4 -39q0 -7 2 -30t5 -50.5l5.5 -51t2.5 -33.5q0 -8 1.5 -23.5t5.5 -32t6 -28.5t6 -14q5 -4 3 -1t7 12q2 6 8.5 16t12.5 21.5l11.5 23t6.5 17.5q4 9 16.5 16.5t17.5 15.5q3 10 1.5 14.5t1.5 15.5q4 11 6.5 25.5t4.5 23.5q0 14 14 27.5 l18 17.5q3 1 7.5 6t6.5 8q4 1 7 -6.5t4 -12.5q3 -6 7 -25t5 -34q2 -12 12.5 -25t17.5 -25q8 -11 17 -26.5t9 -23.5q0 -9 -3.5 -9.5t-11.5 -0.5q-9 0 -6 -12t7 -25q2 -12 12 -19t24 -13q12 -8 11.5 3.5t4.5 32.5q1 11 6.5 50t10 84t7.5 83.5t3 49.5q0 23 14.5 45.5t21.5 22.5 q6 0 15 -10t13 -21q3 -11 -4.5 -33t-17.5 -41q-5 -9 -9 -50.5t-7.5 -89t-7 -90t-5.5 -54.5t-2 -27.5v-31.5t-3.5 -27.5t-13.5 -15.5q-9 -3 -17.5 9.5t-17 31t-14 36t-6.5 22.5q-1 6 -13.5 25l-26.5 42t-26.5 40.5t-16.5 20.5q-6 7 -16.5 20.5t-17.5 10.5q-8 -1 -11 -13 t1 -19q3 -10 8.5 -13.5t4.5 -13.5q0 -13 -7.5 -21.5l-21.5 -23.5q-10 -10 -17 -25.5l-15.5 -34.5t-15 -38t-12.5 -31q-12 -25 -25.5 -29.5t-27.5 1.5q-12 7 -12 21.5v18.5q0 5 -2 28t-5 48q-1 9 -5 35t-8.5 62l-9.5 76t-8.5 74t-6.5 58t-1 29q4 14 16 29t19 14zM170 450 q4 -26 8.5 -49.5t4.5 -26.5q0 -4 -1.5 -12t-5.5 -16q-4 -11 -6 -24v18v18.5t2 18.5q2 9 0 33l-4 48q-5 30 -9 63zM319 435q5 -1 16.5 -21.5l23.5 -44t20.5 -43.5t8.5 -21q0 -2 -2.5 5t-7.5 16.5t-9 18.5t-7 13q-2 4 -8.5 16t-15.5 26q-8 16 -19 35zM530 494q-2 -48 -6 -87 q-3 -33 -5 -63t-2 -39q-1 -8 -4.5 -40t-7 -69t-7.5 -69.5t-4 -43.5q-2 -43 -26 -47q-8 -2 -16 9l-7 10q0 -2 3 -3q3 -4 7 -6q12 -4 23 7q7 6 9.5 21t2.5 23q0 5 3.5 35t7 67.5t7 68.5t3.5 38q0 8 3 38t7 63q6 39 9 87zM189 53q6 10 21 38.5l31 61.5q19 36 38 80 q-3 -13 -7 -23q-2 -9 -4.5 -17t-6.5 -11q-1 -4 -10 -22t-19 -41.5t-21.5 -44.5t-18.5 -29q-16 -16 -23 -17t-6 5q5 4 9 3.5t17 16.5z" />
<glyph unicode="x" horiz-adv-x="601" d="M471 507q-2 -12 -15 -27q-6 -7 -27.5 -27.5t-30.5 -33.5q-6 -7 -13.5 -20l-16 -28t-17.5 -28t-14 -17l-11.5 -10t-8.5 -8q-5 -5 -9 -7l8 -9q1 0 4 1q8 4 11 8q4 3 11 0q3 -2 5 -4q-2 0 -4 -1q-1 -3 -3 -3.5t-3 -1.5q-5 -2 -5.5 -3.5t-1.5 -2.5q-2 -4 -4 -6l6 -9 q3 -3 14 -19.5t25.5 -34.5t28 -36.5t20.5 -26.5q13 -19 35 -37.5t26 -28.5q3 -20 -16 -32q-9 -9 -19.5 -9t-17.5 5q-7 4 -12.5 12t-10.5 17q-6 9 -16 26t-22 32q-6 8 -16 23.5l-21 32l-20 30.5t-10 19q-4 5 -4 21v15q-6 -4 -8 -6l-7.5 -7.5t-5.5 -2.5q-5 -1 -9 -9.5 t-8 -10.5q-6 -9 10 -11q9 -4 8 -5t-2 -9q-4 -8 -19 -27l-38 -48q-21 -27 -26.5 -47t-18.5 -35q-15 -15 -31.5 -4.5t-17.5 23.5q-3 14 8 28.5t20 29.5l17 23l23 30l21.5 27t13.5 14q6 5 16 18t14 17q6 6 10 15q4 7 5 11l-5 8q-3 5 -23.5 27.5t-36.5 42.5l-21 28.5l-28 36 t-26.5 36t-13.5 27.5q-4 20 15 35q10 7 23 13v4q0 2 6 -2l8 -8t5 -13l16.5 -35.5l19.5 -42.5q11 -19 24.5 -32t18.5 -20q9 -8 13.5 -15.5t3.5 -14.5q-2 -8 -5 -6t-7 -2q-5 -3 3.5 -12.5t13.5 -13.5q3 -7 6 -8q1 -3 1 -4l6 11q2 8 13 23t23 34l17.5 29l23.5 39.5l21.5 36.5 t12.5 22q6 9 17.5 21.5t15.5 14.5q0 5 7 9l7 2v-5q0 -3 5 -8q3 -6 13.5 -17.5t6.5 -26.5zM367 301q1 0 4 -2l6 -7q3 -3 5 -10.5t5 -14.5q0 -4 8 -16.5l17.5 -26.5l18.5 -27t13 -18q2 -6 -8.5 9l-25 35l-27 37l-15.5 21l-7 14.5t1 18.5q5 2 21 29t38 57l54 74zM271 412 q3 12 -6 31t-20 40q-12 20 -30 45q18 -25 30 -44l20 -33t10 -16q3 -4 -0.5 -15.5t-3.5 -7.5zM271 177q3 -7 -10.5 -29.5t-30 -45.5l-31.5 -43.5t-18 -21.5q-4 -6 -16 -10q-8 -1 -14 -2l14 20q3 -1 7 -1q7 0 15 7q4 4 19 23.5t28 42.5q18 26 37 60zM471 37q-2 -11 -4 -11 t-4 1l4 7q2 4 3 4t1 -1z" />
<glyph unicode="y" horiz-adv-x="606" d="M299 328q1 0 9 10l17.5 21.5t18.5 24t13 16.5q3 8 11.5 23.5l19.5 34l21.5 36l15.5 25.5q11 17 22.5 25t17.5 3q4 -6 15.5 -15.5t11.5 -20.5t-18 -32l-31 -37q-7 -8 -25.5 -32l-39 -52t-36 -51.5t-19.5 -32.5q-3 -11 -4 -33t0 -46.5t2.5 -45t4.5 -26.5q1 -7 4.5 -21.5 t4 -27.5t-4 -23.5t-22.5 -10.5t-25.5 10.5t-8 23.5t1.5 27.5t2 21.5v32t-1.5 54t-2 51t-0.5 26q-1 3 -19.5 27l-40.5 53q-11 13 -26.5 36.5l-30.5 46.5t-24.5 43.5t-8.5 29.5q4 17 20.5 19t27.5 -7q5 -4 11.5 -16t11 -27l8.5 -27.5t8 -17.5q3 -5 12.5 -17t21 -24.5t21 -24.5 t12.5 -17q3 -10 3 -15t4 -12q1 -10 4 -10t10 2zM224 510q17 -29 32 -50q15 -19 24.5 -35.5t11.5 -20.5zM499 477q0 -2 -21.5 -35l-45.5 -70l-64 -94v-78q0 -31 -1.5 -62.5t-1.5 -47.5q0 -21 -4.5 -31t-10.5 -17q-8 -8 -15 -11l11 11q4 3 10 14q2 5 7 12q-3 55 -3 101 q-2 38 -2 70v35q0 4 22 34l49 70z" />
<glyph unicode="z" horiz-adv-x="608" d="M158 559q13 -2 24 -4q8 -2 17.5 -2.5t14.5 -0.5q4 0 31.5 0.5t59 0.5t58 1t28.5 1q10 0 17 7.5t16 8.5q8 1 22.5 -14t14.5 -24q0 -11 -6 -29t-12 -24q-4 -4 -23.5 -31.5l-43.5 -61l-47 -64t-30 -38.5l-28 -34.5t-39.5 -51.5l-36 -50.5t-16.5 -24.5q0 -5 14 -9.5t23 -4.5 t16 3.5t14 7.5q8 3 21 -4t25 -8q5 -3 23.5 -1.5t39 3.5t39.5 6t27 8q17 10 38 4.5t21 -25.5q0 -21 -13 -37.5t-29 -20.5q-17 -2 -27 2t-26 4q-7 0 -35.5 1.5t-61.5 2.5t-61.5 2t-32.5 1q-11 0 -28.5 1t-23.5 11q-5 11 0.5 32.5t5.5 27.5q0 3 6.5 18.5t17.5 34.5l22.5 39 t19.5 28l33 40.5l54 67.5l51 65.5t24 30.5q3 3 7 14t-5 24q-8 13 -24.5 10t-24.5 -6q-8 -4 -13 -2t-17 -2q-7 -1 -31.5 -1h-53.5h-71v35q0 7 -3 17.5t1 14.5q2 4 7 2t10 -2zM481 518q6 -12 0.5 -28.5t-15 -32t-20 -30l-15.5 -21.5l-29 -41l-52 -72l-52 -71.5t-25 -41.5 q-4 -12 7 -12q5 0 12 4l-48 -7q2 3 6 8q4 4 6 8t6 10q1 4 16 23.5l36.5 48.5l46 61.5l47 61l38 49.5t18.5 26q5 6 8 15.5t7 19.5q1 10 2 22z" />
<glyph unicode="~" horiz-adv-x="611" d="M160 202q1 4 4 7.5t7 7.5q2 3 6 5q0 -2 3 -2q7 0 15 6q4 6 15 14t26 16.5t30 13t27 4.5q25 -3 40 -27.5t32 -33.5q17 -7 23 1t14 4q7 -4 8.5 -16t10.5 -3q8 8 8 18v7l11 13q3 6 8 10t7 1q4 -4 6.5 -15t-2.5 -16q-1 -4 -10.5 -11.5t-22 -16t-26.5 -14.5t-26 -4 q-13 2 -25 9.5t-23 17t-18.5 18t-8.5 10.5q-6 4 -18 4t-23 -5q-8 -3 -15.5 -10.5t-10.5 -9.5q-4 -5 -5 -11.5t-6 -17.5q-7 -8 -15 -8t-19 3q-10 4 -21.5 9.5t-5.5 21.5zM477 244q19 7 8 -37q-2 -9 -13 -17.5t-22 -13.5t-20 -6.5t-6 -0.5q7 2 14.5 7l15.5 10q10 2 14.5 5 t8.5 11q4 11 4 23v14zM246 198l6 2q6 5 18 6q12 0 16 -1l5 -5z" />
<glyph unicode="&#xa1;" horiz-adv-x="597" d="M271 324q0 15 8 18.5t19.5 3t19 -6t7.5 -11.5v-34.5t1 -65.5q0 -42 3 -92q-4 -7 -6.5 -18.5t-11.5 -11.5t-23 13.5t-18 25.5q-2 4 -2 30t1 55.5t1.5 57.5t0.5 36zM347 107q0 4 1 7q4 7 4 1q0 -2 -4 -6zM314 90q-4 5 5.5 1.5t10.5 -7.5q4 -5 -4 -2.5t-12 8.5zM304 471 q-10 5 -17 11q-16 8 -16 17q0 15 25 21q15 1 34 -6.5t23 -42.5q2 -19 -5 -31.5t-16.5 -19.5t-21 -10.5t-14.5 -3.5q-9 0 -11.5 13.5t-4.5 26.5q0 7 3.5 10t8 5.5t8.5 4t4 5.5zM270 475q4 -10 1 -31t3 -28q-4 3 -8 9q-7 11 -7 17q0 10 0.5 14.5t0.5 8.5v17q0 5 3 9q0 -1 1 -4 zM352 178q0 19 -1.5 35.5t-1.5 25.5q-1 9 -0.5 27.5t0.5 37.5v46h4v-8q0 -3 1 -5t1 -5v-66q0 -6 -1 -27t-1 -46q-1 -28 -1 -61v46z" />
<glyph unicode="&#xa2;" horiz-adv-x="580" d="M392 365q-5 4 -10 10t-10 11q-5 6 -23 15.5l-27 14.5q-6 1 -16 1t-21.5 -0.5t-22.5 -2t-15 -2.5q-5 -1 -17.5 -9.5t-26.5 -23t-25 -36t-11 -49.5q0 -29 11 -49.5t27 -34t36 -23.5t37 -17q18 -7 35 -0.5t30 18.5t21 23.5t9 15.5q4 7 14.5 12.5t19.5 2.5q8 -3 20.5 -11 t6.5 -32q-2 -13 -13 -24.5t-23 -21.5t-24.5 -17.5t-17.5 -8.5q-8 -4 -30 -3t-30 -3q-10 -4 -3 -12.5t10 -17.5q9 -21 1 -36q-3 -7 -16.5 -12t-22.5 2q-6 4 -8 15.5t-2 24.5v24.5v17.5q-1 8 -4.5 8t-12.5 4l-29 15.5t-35 25.5q-14 12 -27 37t-13 85q0 27 9 53t21.5 44 t24.5 29t20 13q16 4 25 8.5t16 10.5q5 5 4.5 12t-0.5 15q0 5 -2 20.5t-2 29.5q0 15 8 19.5t19 8.5q9 5 13.5 -2.5t10.5 -20.5q7 -10 1.5 -26t-7.5 -21q-4 -6 -2 -17.5t10 -11.5q9 0 25.5 -1t33.5 -7q7 -4 21.5 -8t28 -12t23 -17.5t8.5 -20.5q-4 -21 -22.5 -29.5t-28.5 -5.5z M449 182q-5 -20 -19.5 -35t-30 -24.5t-29 -14t-14.5 -4.5q-4 -4 -11.5 -5t-2.5 5q7 6 30 12.5t31 12.5q4 4 11 13l15 19q10 9 20 21zM208 329l12 18l12 16zM204 294q-3 5 2 15q2 3 2 7z" />
<glyph unicode="&#xa5;" horiz-adv-x="607" d="M318 232v-24h55q5 0 19.5 7.5t29.5 2.5t19 -15t2 -20q0 -11 -7.5 -21t-19.5 -13q-12 -1 -15.5 2.5t-10.5 3.5h-69q0 -11 1.5 -20t1.5 -13q1 -7 4.5 -20t4 -26.5t-4 -23.5t-22.5 -10q-17 0 -24.5 10t-8.5 23.5t0.5 26.5t1.5 20v33h-17q-14 0 -31 -2.5t-21 2.5q-4 1 -11 12 q-4 5 -5 8l6 4q6 4 10 8q1 4 -7.5 3.5t-12.5 2.5l-4 8t6 8q4 1 15 1h22.5h23t17.5 -1q5 0 9 -1q0 15 -1 24h-16q-14 0 -31 -2t-21 2q-4 1 -11 12q-4 6 -5 8l6 4q6 5 10 10q1 3 -7.5 2t-12.5 2q-2 4 -4 9t6 7h15h22.5h23h17.5h8q-2 3 -21.5 27t-39.5 54q-11 14 -26 37 l-29.5 46.5t-24 44t-7.5 28.5q4 18 19.5 20t27.5 -8q6 -2 11.5 -14.5t9.5 -27.5t8 -27.5t7 -17.5q4 -5 13.5 -18t21 -26l21 -24.5t10.5 -16.5q4 -8 5 -13.5t3 -15.5q3 -6 5 -6t9 2q1 0 9 9t17.5 21l18.5 23.5t13 18.5q3 7 13 22.5t20.5 34.5l20.5 35.5t15 26.5 q10 17 22 24.5t18 3.5q5 -8 16 -17.5t11 -20.5t-17.5 -30.5l-32.5 -36.5q-4 -6 -20.5 -27.5l-35 -46.5l-35.5 -49.5t-23 -35.5h46q5 0 19.5 6.5t29.5 0.5q15 -5 19 -13.5t2 -17.5q0 -11 -7.5 -20.5t-19.5 -13.5q-12 -2 -15.5 1.5t-10.5 3.5h-72zM224 511q19 -27 32 -49 l22.5 -36t11.5 -21zM360 84q0 8 -1 22.5t-1 37.5l9 -2v-23t-0.5 -11t-0.5 -6v-13q-3 -17 -7 -28t-9 -18q-7 -7 -17 -11l4 4q2 2 4 2.5t3 4.5q2 1 4.5 4.5l6.5 9.5q3 5 5 12v15zM374 300l37 51l41 58q23 31 47 69q0 -4 -13.5 -25.5t-34 -51l-41 -59l-32.5 -47.5zM462 273v-3 v3zM462 270q4 -12 -1 -22q-4 -8 -7 -15v-5q0 -5 4 -12q3 -3 1.5 -11t-1.5 -15q-1 -10 -1 -18v15q0 16 -1 22q-4 11 -6 14q-1 4 -5 5q1 0 5 4q4 3 5 7.5t3 12.5q4 10 4 13.5v4.5zM245 138q-4 -4 -15 -4q-5 0 -9 3z" />
<glyph unicode="&#xa8;" horiz-adv-x="597" d="M341 625q0 10 17 18l17 11q0 4 -3.5 5.5l-8.5 3.5t-8.5 4.5t-3.5 9.5q1 13 4 27t11 14q5 0 14.5 -3.5t20.5 -11t17.5 -20t5.5 -29.5q-4 -36 -23 -44.5t-33 -4.5q-27 1 -27 20zM343 707q-6 -7 -3 -28t1 -31q-4 -2 -4 -5t-1 -7q-2 -3 -2 -5q-1 5 -1 12v15q0 3 -2 8t-2 15 q0 7 7 18q4 4 7 8zM201 718q6 0 15.5 -3.5t20 -11t17.5 -20t6 -29.5q-3 -36 -23 -44.5t-33 -4.5q-27 1 -27 20q0 8 9 12q3 5 8 9q2 6 -4 11.5t-4 19.5q0 4 1 5.5t1 5.5l-7 -23.5t-4 -16.5q-3 -2 -3 -5t-3 -7q-1 -3 -1 -5q-1 5 -1 12v15q0 3 -2 8t-2 15q0 18 12 24.5t17 7.5 q4 5 7 5z" />
<glyph unicode="&#xa9;" horiz-adv-x="603" d="M348 545q7 4 21.5 -13t28.5 -42q7 -11 18.5 -38t22.5 -61t18.5 -70t6.5 -69q-2 -31 -12.5 -61t-24.5 -54q-16 -29 -35 -52l-6 -8q-1 -1 -18.5 -9.5t-45.5 -12.5t-60.5 -2t-62 19.5t-52.5 53.5t-30 100q-9 94 3 149.5t32 85t43 41t34 17.5q10 5 27 8t35 3.5t32 0.5h18 q7 0 4.5 5.5t2.5 8.5zM427 291q-1 50 -13.5 84.5t-30 55.5t-37.5 31.5t-33 15.5q-29 10 -44 3.5t-23 -14.5q-4 -2 -21.5 -14t-36.5 -33.5t-33.5 -53t-12.5 -69.5t11.5 -66.5t20 -48.5t20.5 -29.5t13 -10.5q9 -4 12.5 -6.5t5.5 -8.5q0 -1 8 -8t21 -12.5t29 -8t33 2.5 q17 7 37.5 18t36 32t26.5 55t11 85zM320 572q55 -3 99 -30q34 -24 62.5 -79.5t22.5 -159.5q-6 -105 -32.5 -161.5t-56.5 -80.5q-36 -30 -79 -33l42 26q18 11 33.5 22.5t23.5 18.5q8 6 14.5 12.5t13 24t14.5 54t18 106.5q11 71 -15.5 123t-60.5 88q-44 40 -99 69zM301 420 q5 2 6 0l4 -3q2 0 10 -7t17.5 -17t17 -19t11.5 -13q6 -13 2.5 -23.5t-7.5 -11.5q-3 -4 -7 -4q-4 1 -7 3t-5 6q-6 4 -6 15l-1 6q-3 4 -5 8.5t-6 8.5q-1 2 -10 4t-18.5 3.5t-19.5 2.5t-13 -1q-15 -7 -25 -19q-9 -11 -18 -27.5t-7 -39.5q2 -40 23 -68t45 -32q21 -2 37.5 13.5 t19.5 20.5q2 3 3 10.5l2 14.5q1 5 1 9t3 7q2 6 8 7t10 1l3 -1q9 -10 5 -23v-2q-5 -42 -21 -59.5t-32 -22.5q-33 -11 -62 3t-48 50q-23 39 -19.5 76.5t13.5 66.5q7 19 19.5 29.5t24.5 14.5q15 9 29 10q4 0 11.5 0.5t11.5 2.5zM278 345q-5 -11 -9 -8.5t-8 2.5q-3 0 -8 -2.5 t-14 -40.5q-5 -19 0 -34t14 -23q8 -11 23 -19q-5 -3 -12 1q-12 4 -23 19q-11 16 -13.5 38.5t6.5 44.5q7 18 26 22q7 1 18 0zM396 228q-6 -32 -18 -49t-24 -25q-15 -9 -30 -9q2 0 9 3q8 1 23 13q6 6 12 16t13 24z" />
<glyph unicode="&#xaa;" horiz-adv-x="592" d="M123 27q-9 2 -7 17t10 33.5t17.5 34.5t13.5 26q9 14 14.5 31t6.5 25q3 10 4 23t13 48q13 38 31 73t18 43q0 7 1.5 15.5t5.5 17.5q4 11 10 19.5t6 14.5q0 7 -4 16t-3 21q2 6 6.5 14.5t10.5 16t13 12.5t13 0q6 -6 9.5 -18t6.5 -25t4 -25t4 -17q2 -6 10.5 -26.5l19 -45 l21 -50t15.5 -42.5q6 -15 16.5 -43.5t22.5 -57l21.5 -52.5t12.5 -30q5 -13 18 -24.5t8 -24.5q-2 -16 -8.5 -22t-26.5 -2q-19 2 -25 18t-9 26q0 5 -4.5 15t-9 18.5t-10 17t-6.5 9.5q-5 4 -16.5 -4t-23.5 -14q-12 -7 -26.5 -4t-47.5 3q-32 0 -46 -5.5t-25 -5.5q-12 0 -16.5 9 t-13.5 7q-8 -2 -5.5 -9.5t-0.5 -17.5q-1 -8 -6.5 -26.5t-13.5 -30.5q-8 -14 -15.5 -9t-13.5 7zM372 235l-15 35.5t-26.5 59.5l-26.5 55t-16 26q-9 3 -11 -3t-9 -16q-6 -8 -13 -15t-4 -8l10.5 -6.5t5.5 -7.5q0 -1 -6 -17.5l-14.5 -38l-16 -42t-9.5 -29.5t-8 -19.5t-12 -19.5 t-9 -16.5t1 -8.5q7 -3 14 -4.5t27 5.5q19 6 28 10.5t13 0.5q11 -5 41 -5q7 0 18.5 -3t22 -5t17.5 -1t8 7q4 14 1.5 31.5t-11.5 34.5zM249 222q4 16 10 34q3 15 8.5 28.5t10.5 17.5q-3 -10 -4 -18q-1 -12 -7 -20q-1 -4 -4 -11t-7 -15zM263 205h8q7 0 12 2q7 2 11 -6t6 -15z M207 78q30 4 59 5q24 2 46 2.5t34 -2.5zM200 70q2 -18 -13 -39q-6 -8 -19 -19q0 3 3 6q1 4 4 6.5t7 5.5q5 6 12 23q2 7 6 17zM497 126q-4 1 -10 18t-16 42.5l-23 58.5l-28 69l-70 182l80 -193l27.5 -70.5l23 -58.5t14.5 -38t2 -10z" />
<glyph unicode="&#xab;" horiz-adv-x="580" d="M251 129q1 -5 9.5 -17.5t13.5 -24.5t2.5 -24t-18.5 -17q-18 -5 -27.5 3t-15 20t-7 26t-3.5 20q-3 7 -14 38t-22 67l-21 66.5t-10 36.5q0 5 12 36.5t28.5 69l30 69.5t17.5 43q6 19 15 29.5t15 6.5q7 -2 19 -8.5t16 -16.5q3 -10 -7 -35t-19 -45q-3 -9 -15.5 -33l-26 -51 t-23.5 -50.5t-10 -33.5q0 -11 8.5 -36.5l19 -54.5l20 -53t13.5 -31zM298 110q5 -18 3 -29.5t-5 -19.5q-5 -10 -11 -15l3 4q3 1 6 8q0 4 4 18q1 7 2 12l-37 109l-13.5 42.5t-13.5 36t-10.5 26t-3.5 12.5q0 3 14 36l29 71q18 46 44 102q1 -3 -12.5 -35.5t-26.5 -69.5l-41 -97 l30 -90q12 -35 22.5 -70.5t16.5 -50.5zM388 129q1 -5 9 -17.5t13 -24.5t2 -24t-18 -17q-17 -5 -26.5 3t-15 20t-7.5 26t-4 20q-4 7 -14 37l-21.5 65t-20.5 65t-9 35q0 6 5.5 18.5t12 29l13 31.5t8.5 22t8.5 23l15 35.5t14.5 36.5l10 28q4 19 13 29.5t17 6.5q7 -2 19 -8.5 t15 -16.5q4 -10 -7 -35t-19 -45q-4 -9 -16 -33l-25 -51l-24 -50.5t-11 -33.5q0 -11 9 -36.5l19.5 -54.5t20.5 -53t14 -31zM434 110q5 -18 4 -29.5t-5 -19.5q-6 -10 -11 -15l4 4q1 1 5 8q0 4 3 18q3 7 4 12q-20 60 -38 109q-7 22 -14.5 42.5l-13.5 36t-9.5 26t-3.5 12.5 q0 3 13 36l29 71l44 102q3 -3 -11 -35.5t-27 -69.5l-41 -97l30 -90q12 -35 23 -70.5t15 -50.5z" />
<glyph unicode="&#xac;" horiz-adv-x="603" d="M344 545q8 3 21.5 -13.5t29.5 -40.5q7 -11 18.5 -38t22.5 -61.5t18.5 -70.5t5.5 -68q-1 -31 -12 -61t-24 -55q-17 -28 -36 -51l-5 -8q-1 -3 -19 -10.5t-46.5 -12t-61 -2t-61.5 20t-51.5 53.5t-29.5 100q-11 93 1.5 148t33 85.5t42.5 41.5t33 16q11 6 28.5 8.5t35.5 3 t32 0.5h17q7 0 4 5.5t3 9.5zM424 290q-3 50 -15 85t-30 56t-37 31.5t-34 14.5q-27 10 -42 4t-24 -13q-3 -4 -20.5 -15.5t-37 -33.5t-34 -53t-11.5 -69q1 -37 10.5 -65.5t20.5 -48.5t20.5 -29.5t13.5 -10.5q8 -4 11.5 -7t6.5 -8q0 -1 7 -8t21 -12.5t29.5 -8t32.5 2.5 q18 7 38.5 17t36 32t26.5 56t11 83zM177 313q19 90 44 117t28 22q0 -2 -9.5 -10t-22 -27t-23 -50t-8.5 -78q2 -46 13.5 -74t24.5 -44q17 -19 37 -26q-30 15 -50 39q-19 22 -30.5 54.5t-3.5 76.5zM326 575q57 -3 99 -30q35 -24 63 -79t24 -161q-8 -102 -34.5 -158.5 t-56.5 -80.5q-35 -32 -79 -34q23 13 42 25q18 11 33.5 22.5l25.5 18.5q6 7 12.5 13t14 23.5t15 55t17.5 106.5q11 69 -15.5 122t-61.5 88q-42 41 -99 69zM234 404q2 1 22 1h43l13 -1q10 0 22 -2.5t24.5 -11t20 -25.5t7.5 -45q0 -30 -17 -44q-17 -18 -42 -20.5t-39 -2.5h-11 q-8 -2 -13 0h-4q-11 4 -14 4q0 -7 -1.5 -24t-1.5 -24q0 -21 6 -27q0 -1 2.5 -6.5t2.5 -10.5v-2q0 -12 -5 -13q-7 -3 -15 1q-12 7 -16.5 14.5t-4.5 15.5q0 5 3 7q1 9 4 33t3 32v3q-1 24 -2.5 42t-1.5 29q0 16 1.5 35.5t2.5 23.5q0 5 1.5 9.5t9.5 8.5zM249 287h11l13 3h3 q12 -3 20 -3h27q6 0 21 11t15 29q0 19 -5.5 26.5t-15.5 11.5q-3 4 -13.5 3t-18.5 -1h-7h-26q-8 0 -13 2h-6l-1 1q-2 0 -4 -1v-4q0 -4 1 -12.5t1 -14.5v-18q0 -5 -1 -17t-1 -16zM261 241q3 1 4 -5t3 -15.5t3 -21t1 -19.5q-3 -22 -7 -29q-4 -5 -5 -8q1 3 1 7q0 8 3 13 q1 7 0.5 18t-0.5 19q0 9 -2 24t-1 17zM399 291q-8 -11 -23.5 -28.5t-33.5 -20.5q10 4 17 9q6 5 13 9.5t11 9.5q8 11 14 30.5t5 34.5q0 16 -5.5 33t-13.5 24l-14 13q4 -2 13 -8q4 -4 8.5 -10.5t8.5 -16.5q7 -19 7 -40.5t-7 -38.5z" />
<glyph unicode="&#xad;" horiz-adv-x="610" d="M253 310q5 -3 22 -1.5t37 1.5h48q4 0 18 6.5t28 1.5q15 -5 20.5 -22t2.5 -28q-1 -11 -7 -20.5t-19 -10.5q-12 -4 -16.5 -0.5t-11.5 3.5h-132q-12 0 -29.5 -1t-23.5 3q-8 3 -9 10q-4 4 -4 9l6 3q7 4 7 10q3 5 -6 11.5l-13 9.5q-3 4 -4 8t8 7q8 3 36.5 3t41.5 -3z" />
<glyph unicode="&#xae;" horiz-adv-x="602" d="M345 545q8 3 21.5 -13.5t29.5 -40.5q7 -11 18.5 -38t22.5 -61.5t18.5 -70.5t5.5 -68q-1 -31 -12 -61t-24 -55q-17 -28 -36 -51l-5 -8q-1 -3 -19 -10.5t-46.5 -12t-61 -2t-61.5 20t-51.5 53.5t-29.5 100q-11 93 1.5 148t33 85.5t42.5 41.5t33 16t28.5 8t35.5 3.5t32 0.5 h17q7 0 4 5.5t3 9.5zM425 290q-3 50 -15 84.5t-30 56t-37 32t-34 14.5q-27 10 -42 4t-24 -13q-3 -4 -20.5 -15.5t-37 -33.5t-34 -53t-11.5 -69q1 -37 10.5 -65.5t20.5 -48.5t20.5 -29.5t13.5 -10.5q8 -4 11.5 -7t6.5 -8q0 -1 7 -8t21 -12.5t29.5 -8t32.5 2.5q18 7 38.5 17 t36 32t26.5 56t11 83zM166 325q9 44 22.5 70.5t27 39t23 15.5t11.5 2q0 -2 -12.5 -13.5t-28 -34t-27.5 -56.5t-11 -79q1 -47 -2 -61.5t-6.5 -3t-4.5 44t8 76.5zM318 571q55 -1 97 -30q36 -24 64.5 -78.5t22.5 -160.5q-7 -104 -33.5 -160t-55.5 -81q-36 -29 -81 -34 q24 15 43 28q17 10 33.5 21t24.5 19l13 13t13.5 24t15 54.5t18.5 104.5q10 71 -16 124t-62 88q-42 39 -97 68zM319 415q4 3 4 0q1 0 1 -1.5t2 -1.5q5 -1 10.5 -2.5t13.5 -10.5q7 -6 15 -19t10 -37q0 -11 -5 -22t-13 -20.5t-15 -14.5t-10 -5v-1v-3q0 -3 6 -19l5 -12 q4 -7 9 -15l10 -16q13 -17 13 -21q2 -2 2 -6q0 -13 -12 -15q-3 -3 -8 0q-7 2 -13 14.5l-12 24.5l-1 5l-5 11l-14.5 33t-14.5 22q-3 4 -7.5 2t-9.5 -4q-2 0 -4 -0.5t-3 -0.5q-3 0 -7 -1.5t-7 -1.5h-13t-9 -1q-1 -2 -0.5 -8t0.5 -10v-1v-10t-1 -15q-1 -5 -1 -10v-6q0 -4 2 -11 q5 -13 5 -17q0 -3 -7 -11q-10 -4 -12 -3h-3q-6 0 -7 5l-3 6q-2 3 -2 27v35v8v54v71q0 2 1 15t5 16q3 1 21 1h15h24h27.5t17.5 3zM273 378h-8q-3 -2 -10 -2h-3q-5 0 -9 2q-7 3 -7 0q-1 -2 -1 -8q0 -1 1 -11.5t1 -18.5v-1l3 -6q0 -5 -3 -6q-1 -4 -3 -9t1 -8q5 0 12 4h3l2 2 q6 0 10 -2q8 -1 17 -2.5t17 -2.5q28 0 35 8q7 6 11.5 14.5t2.5 18.5q-2 7 -4.5 15t-8.5 11q-13 5 -19 5q-5 0 -6.5 -0.5t-3.5 -0.5q-2 -4 -8 -3t-15 1h-7zM339 427l6 -4q39 -19 45 -36t10 -37v-7v-5q0 -18 -10 -33t-17 -22l-5 -6v-1q0 -6 8 -26l11 -28l-3 -2 q-9 15 -19.5 35.5t-10.5 21.5q0 4 23 20l2 4q13 8 13 47q0 9 -3 26q-4 16 -20 28.5t-26 17.5v2l-5 1zM258 268l3 -3q4 -1 7 -3t6 -2q14 0 14 -9q0 -4 -6 -5q-4 0 -7.5 2t-7.5 3q0 -4 -0.5 -8t-0.5 -11q0 -4 1 -8v-1q0 -14 -4 -34t-8 -26q-1 -1 -5 -1q-6 0 -10 5q-4 2 -5 6 l1 2q7 -2 12 -2h2l2 2q3 4 3 11v7q0 1 -0.5 11.5t-0.5 20.5t-1 19t-1 11v2q0 8 2 11h4z" />
<glyph unicode="&#xb1;" horiz-adv-x="601" d="M437 311q14 0 22 -15.5t5 -33.5q-4 -16 -16 -23t-22 -7q-8 0 -14 3.5t-13 3.5h-27t-53 2q-2 -39 -2.5 -68.5t-0.5 -32.5t0.5 -22t-20.5 -22q-19 -5 -31.5 6.5t-16.5 25.5q-3 15 4.5 25t7.5 16v73q-31 3 -54.5 3h-27.5q-2 0 -18 -1.5t-25 20.5q-4 8 6 18.5t24 14.5 q13 4 25.5 2t18.5 -2q1 0 16 -2.5t35 -7.5v30q3 15 0.5 24t-5.5 16.5t-5.5 15.5t-2.5 23q1 14 17.5 22.5t31.5 4.5q17 -2 24.5 -16t7.5 -22q0 -9 -3.5 -15t-3.5 -13l-2.5 -7t-6.5 -15.5t-6 -17t-2 -13.5q0 -8 4.5 -11t8.5 -6q14 -4 21 -4q5 0 21.5 5t19.5 8q16 2 31 8.5 t27 6.5zM372 211q13 0 20.5 -1t10.5 -1t-6 -0.5t-20.5 -2t-22.5 -1.5t-12 4h9q3 0 8.5 1t12.5 1zM211 220h25q-2 -4 -8.5 -4.5t-12.5 0t-11 2.5t-3 2h10zM478 287q2 -2 1.5 -8.5t-0.5 -13.5q-1 -7 -1 -15v37zM147 -27q-5 17 6.5 29.5t24.5 16.5q14 3 24.5 -4.5t15.5 -7.5 h152q11 0 38.5 6.5t39.5 6.5q13 0 22 -15.5t6 -33.5q-4 -16 -17 -22.5t-22 -6.5q-8 0 -14 3t-15 3q-2 0 -36 1t-73.5 2t-73 2t-34.5 1q-5 0 -22.5 -1t-21.5 20z" />
<glyph unicode="&#xb2;" horiz-adv-x="615" d="M194 372q-19 -8 -31 -5q-4 2 -7.5 11.5t-3.5 25.5t4 35t19 41q14 19 31.5 30.5t34 17t29 7t17.5 1.5q4 0 15.5 -1.5t24.5 -5.5t28 -7l-4 16l42 -28l30 -25t19 -22q3 -8 5 -26.5t1.5 -38t-4.5 -36.5t-8 -25q-6 -9 -25.5 -21l-42 -25.5l-43 -26t-27.5 -19.5 q-10 -7 -23.5 -22.5l-28.5 -34t-26 -34.5t-12 -23q-4 -15 -4.5 -21t8.5 -9q8 -2 17.5 1t16.5 4q10 3 18 0.5t20 -2.5q4 0 22 -1.5t38.5 -3t36.5 -1.5t22 1l29 15.5t36 4.5q17 -7 24.5 -25t4.5 -27q-6 -10 -23 -21.5t-25 -11.5q-9 0 -18.5 5t-18.5 5q-5 0 -35 1t-65.5 3 t-66 4.5t-37.5 2.5q-26 4 -37 9q-4 0 -5.5 16.5t-1.5 37t4.5 43.5t14.5 37q21 30 43.5 51t48.5 36q12 7 36.5 19t47.5 27.5t37.5 33.5t6.5 36q-14 35 -34.5 56t-65.5 19q-47 -2 -73 -23t-29 -28q-4 -11 -4 -12q-1 -4 -1 -6q4 5 7 6q9 3 9 -6l-6 -20t-12 -15zM279 450 q-4 0 -10 -2q-9 -4 -24 -17q-15 -18 -16.5 -36.5t-9.5 -29.5q-4 -7 -10 -11.5t-13 -7.5q-7 -5 -18 -9l4 8q3 4 8 8q4 4 8.5 4.5t8.5 0.5q2 2 7 10t8 15q0 1 1 1t1 3l2 1l-2 -1q0 8 2 15q4 16 8 30q5 12 26 16q8 2 19 2zM478 388q-3 -16 -6 -30q-4 -12 -5 -24t-6 -18 q-6 -11 -18.5 -24t-27.5 -22q-7 -3 -25 -14.5l-38.5 -24.5l-37.5 -24.5l-23 -15.5q-15 -11 -23 -19q-7 -7 -11 -13l49 -10h-13h-13t-11 2q-9 0 -20 -4q-6 -1 -10 -4q-1 -1 -2 -1q-4 0 2 13q4 9 18.5 21t31.5 24.5t32 22t21 11.5q5 4 18 10.5l28 14.5t29.5 17l22.5 14 q9 4 15 20.5l12 34.5q7 19 11 43zM498 40q-1 -11 -20 -14q-10 -1 -22 -1q4 -3 7 0q4 0 15 6l13 7q3 2 7 2z" />
<glyph unicode="&#xb3;" horiz-adv-x="602" d="M188 422q-3 -9 -8.5 -22.5t-18.5 -16.5q-8 -1 -15.5 7t-0.5 34q4 12 15.5 31.5t30.5 37.5t47.5 30t63.5 12q37 0 63.5 -17.5t43.5 -38.5t25.5 -41.5t8.5 -26.5q2 -10 -3 -37.5t-13 -39.5l-19.5 -27t-10.5 -19q0 -1 9.5 -8.5t20.5 -21t20.5 -36t9.5 -49.5q0 -30 -13.5 -54 t-34.5 -41.5t-49 -27.5t-59 -10q-33 0 -60 8.5t-48 22.5t-34.5 29t-16.5 25q-6 10 -8.5 24t-3 28.5t0.5 24t9 9.5q14 0 20 -8t14 -16q10 -10 10.5 -13.5t0.5 -12.5v-16.5t11 -20t37.5 -18t76.5 -8.5q52 0 73.5 18t26.5 39.5t-1 42t-9 25.5q-7 12 -20.5 24t-33.5 16 q-19 2 -40.5 7t-26.5 8l-4 8t-4 15t-1 17t2 11q7 12 8 12q3 3 6 3q7 -6 15 -11q7 -4 13.5 -8.5t16.5 -2.5q17 0 43 20.5t26 60.5q0 19 -17 36t-42 26.5t-50.5 12.5t-39.5 -4q-30 -15 -45 -29t-18 -23zM275 444q-18 -3 -27.5 -8t-15.5 -12.5t-10 -17t-10 -20.5 q-12 -21 -31 -27t-16 -2q0 6 9.5 8.5t21.5 10.5q12 10 14 22t12 26q9 15 33 17q10 3 20 3zM443 305q-2 5 3.5 19l11.5 28q7 17 19 36q-1 -8 -2 -15q-2 -8 -3 -14.5t-4 -12.5q-4 -7 -8 -13t-8 -13q-6 -6 -9 -15zM231 157l6 -11q0 -6 -5 -1t-13 12q-9 6 -15 20.5t-9 22.5 q-4 4 -7.5 8t-7.5 8q-6 6 -8 11q2 0 6 -2q7 -3 13 -7q7 -6 11.5 -21t7.5 -21q4 -7 9.5 -6.5t7.5 -6.5zM482 161q4 -11 1 -23q-1 -11 -6.5 -27t-19.5 -33q-14 -21 -30 -29.5t-28 -11.5q-17 -5 -29 -5q4 1 11 5l17 7.5l28 12.5q15 10 26 25.5t17 33.5q7 19 13 45z" />
<glyph unicode="&#xb4;" horiz-adv-x="590" d="M195 626q-9 0 6 13t30 19q13 7 24.5 16.5t23.5 14.5q12 7 28.5 21t27.5 27q8 12 23 9t25 -16q8 -15 -4 -22.5t-21 -8.5q-9 -5 -12.5 -8t-14.5 -7q-5 -3 -16.5 -10.5t-25.5 -15.5q-15 -10 -30 -22l-18 -8q-9 -3 -16 -5t-11 -2q-8 0 -10 2.5t-9 2.5zM348 673 q-5 -3 -2.5 -8.5t-0.5 -5.5q-7 0 -25 -8l-20 -11l-50 -22l13 8q10 3 16 7q16 7 26 14z" />
<glyph unicode="&#xb7;" horiz-adv-x="585" d="M265 331q0 8 15 18l18 9q0 5 -4 7t-9 3t-8.5 4t-3.5 10q2 14 4.5 27t12.5 13q2 0 13 -3.5t20.5 -10t17.5 -19.5t7 -31q-4 -36 -23.5 -44.5t-33.5 -5.5q-26 6 -26 23zM267 411q-6 -6 -3 -27t-2 -31q-1 -4 -5 -12q-1 -3 -1 -6v28q0 4 -2 8.5t-2 14.5q0 6 8 17q2 6 7 8z" />
<glyph unicode="&#xb9;" horiz-adv-x="610" d="M312 267q0 18 -2 47.5t-5 59t-5 51.5t-4 22q-15 4 -26 -11q-4 -6 -13 -21.5t-16 -18.5q-8 -4 -19 0q-7 0 -12 2q11 12 17 23q7 8 13 17.5t11 15.5q1 5 12 19.5l22 30t22.5 27t16.5 11.5q8 0 13 1t10 7q3 7 3 13v6l-12 9q7 -4 15 -10q13 -11 19 -20q5 -13 -3.5 -5.5 t-13.5 6.5q-2 0 -4 -2t-6 -3q-3 -2 -5 -5q2 -4 5 -12q2 -4 3.5 -12t1.5 -15t-0.5 -28t-1.5 -45t-2 -44.5t-1 -25.5q0 -6 -1 -38.5t-1 -70v-70.5v-39q0 -5 3.5 -19.5t5.5 -29.5t-1.5 -26.5t-15.5 -11.5q-25 -1 -29.5 13t-5.5 26q0 6 1 28t4 49t5 54.5t2 44.5zM379 531 q1 -1 1 -4q0 -7 3 -12q0 -1 0.5 -32.5t0.5 -79.5v-100.5t-0.5 -98.5t-0.5 -78v-32z" />
<glyph unicode="&#xba;" d="M294 466q-6 2 -30.5 -3t-51 -23.5t-49 -53t-24.5 -92.5q-4 -58 12 -97.5t40.5 -64t53 -35t52.5 -10.5q23 0 44 18t37 45.5t24.5 62t8.5 65.5t-8 63t-23 58.5t-36.5 45t-49.5 21.5zM366 497q51 -49 81 -147q6 -26 7 -58.5t-5 -67t-17 -68t-23 -59.5q-14 -25 -39 -45 t-58 -25.5t-72 5.5t-79 42q-38 32 -55 80t-18.5 101t10 103.5t31.5 84.5q17 34 49 49.5t63.5 21.5t53 6t21.5 3q-8 16 9 6.5t41 -32.5zM528 180q-5 2 -6 5t-1 8q0 2 4 6zM392 526q21 -15 38.5 -41.5t29.5 -55t19 -53l10 -34.5q1 -14 1.5 -41t-3.5 -61t-12.5 -70.5 t-25.5 -66.5t-44.5 -50.5t-53.5 -32.5q-31 -14 -65 -23q19 5 41 15q18 8 39.5 21.5t42.5 33.5q40 41 52.5 78t19.5 83q4 22 2 50.5t-6.5 58.5t-11 57.5t-14.5 48.5t-26.5 40t-39 34t-38 25.5t-20.5 11.5l-37 12q14 0 30 -5q14 -4 31.5 -13t40.5 -22zM245 429 q-19 -18 -35 -41q-14 -19 -23.5 -49t-4.5 -66q1 -38 7.5 -60.5t15 -35.5t17 -20l14.5 -12l22.5 -20.5t7.5 -14.5q-3 -2 -13 1t-22.5 9t-24.5 17t-20 26q-14 30 -21 81.5t7 97.5q7 22 19 39t25 28q14 12 29 20z" />
<glyph unicode="&#xbb;" horiz-adv-x="580" d="M185 41q-6 4 -18.5 10t-16.5 14q-4 11 7 35.5l19 43.5q4 11 16.5 35l26 51t23.5 51t10 35t-9 36l-19 53.5t-20 53t-13 30.5q-4 7 -11.5 18.5t-12.5 24.5t-2 24.5t19 16.5q15 6 24.5 -2.5t15 -20.5t8 -25.5t4.5 -20.5q3 -7 13 -37l21 -65.5t21.5 -65.5t10.5 -34 q0 -5 -7 -19t-13.5 -29.5l-12.5 -30.5t-7 -22q-3 -6 -9 -23.5t-13.5 -35.5l-15 -36t-9.5 -29q-5 -19 -14 -29.5t-16 -6.5zM335 305q0 -3 -14.5 -35.5t-29.5 -72.5l-40 -102q-3 4 9 37t27 69l41 97q-17 46 -30 89l-23.5 69t-12.5 53l-8 21.5t0 5.5t5 -8l37 -109l26.5 -75.5 t12.5 -38.5zM286 65q-5 11 6 35.5l19 43.5q5 11 17 35l25 51l24 51t11 35t-9 36l-20 53.5l-20.5 53t-12.5 30.5q-4 7 -12 18.5t-12 24.5t-1.5 24.5t17.5 16.5q17 6 26.5 -2.5t15 -20.5t8 -25.5t3.5 -20.5q3 -7 13.5 -37.5l22.5 -67l21.5 -67t9.5 -35.5q0 -6 -13 -38 l-28.5 -68.5l-30 -69.5t-15.5 -44q-6 -19 -14.5 -29.5t-15.5 -6.5t-20 10t-15 14zM472 305q0 -3 -10 -29.5t-24.5 -60l-28.5 -65.5l-20 -45q-5 -15 -12 -31.5t-14 -31l-12.5 -25t-10.5 -12.5q-7 -2 -15.5 -1t-18.5 5q-8 6 -19 13q11 -6 19 -7q20 -8 34 1q8 4 21.5 31.5 t24.5 53.5q3 10 15.5 41.5l27.5 67.5l36 88l-30 89l-23.5 69t-15.5 53q-4 16 -6 21.5t-1 5.5q3 0 6 -8l39 -109l26 -75.5t12 -38.5zM209 16l7 3.5t8 3.5q4 1 5 4q-8 -10 -17 -12.5t-18 -3.5q-9 -2 -18 0h11q11 0 22 5z" />
<glyph unicode="&#xbc;" horiz-adv-x="1819" d="M1618 517q-2 -11 -2 -18q-2 -7 -2 -14.5t-4 -12.5q-3 -5 -4 -26.5t-1 -46.5v-48t2 -34t2 -29.5v-38v-35t1 -19.5q3 -7 10.5 2t19.5 15q12 9 15 11t12 6q7 1 22.5 -16.5t15.5 -31.5q0 -23 -19 -35q-16 -12 -35 -7q-8 4 -21.5 10t-20.5 4q-7 -3 -1 -29l10 -43 q3 -15 -1 -20.5t-14 -14.5q-8 -7 -11.5 -7t-18.5 5q-6 2 -8 18t-2 34.5t2 34t2 16.5q0 10 -13 18q-5 4 -16 -5.5t-19 -12.5q-4 -1 -34 -1h-65h-89l5 5q4 4 7.5 24t6.5 29q4 8 8.5 20t11.5 28q3 7 26 35l48.5 59l47.5 57.5t23 31.5q3 6 7.5 16t11.5 23t11 22.5t5 14.5 q4 8 18.5 16.5t17.5 12.5q2 1 2 4t2 5q0 4 1 7v-4q0 -8 4 -9q3 -6 10.5 -10t12.5 -16zM1568 188q0 5 1.5 40.5t1.5 76.5t-2 76t-8 41q-4 1 -10.5 -5.5t-15 -17.5t-16 -22t-11.5 -15q-2 -5 -13 -19.5l-22.5 -29.5t-24 -28t-17.5 -20q-12 -13 -26.5 -35t-10.5 -27q2 -3 1 -5.5 t0.5 -4t7 -1.5t20.5 1q27 5 52 5t35 -3q11 0 18 -3.5t16 -6.5q9 -4 16 -4.5t8 7.5zM1496 287q-11 -7 -17 -16q-7 -8 -13 -16.5t-11 -12.5q-2 -4 4.5 -5t17.5 -1q12 0 29 2q-4 -2 -10 -2h-17q-9 0 -26 -5.5t-15 -0.5q0 4 10 13t20 20q12 12 28 24zM1106 495q0 -8 -27 -38 q-3 -5 -20.5 -29.5l-41.5 -59.5l-52.5 -73t-53 -74l-42.5 -62.5t-24 -36.5q-9 -12 -19.5 -27.5l-20 -29.5t-18 -23t-12.5 -5q-9 5 -4.5 15.5t13.5 29.5q4 9 15 27.5l23 38l23.5 37.5t17.5 26q5 6 29 41l50.5 76l50.5 81.5t34 59.5q19 41 31 47.5t18 16.5q5 8 8 7.5t5 -4.5 q4 -6 10.5 -18t6.5 -23zM856 82q-4 -3 -0.5 5t13.5 23l23 34t26 41l80 110l-65 -101l-47 -73t-30 -39zM312 267q0 18 -2 47.5t-5 59t-5 51.5t-4 22q-15 4 -26 -11q-4 -6 -13 -21.5t-16 -18.5q-8 -4 -19 0q-7 0 -12 2q11 12 17 23q7 8 13 17.5t11 15.5q1 5 12 19.5l22 30 t22.5 27t16.5 11.5q8 0 13 1t10 7q3 7 3 13v6l-12 9q7 -4 15 -10q13 -11 19 -20q5 -13 -3.5 -5.5t-13.5 6.5q-2 0 -4 -2t-6 -3q-3 -2 -5 -5q2 -4 5 -12q2 -4 3.5 -12t1.5 -15t-0.5 -28t-1.5 -45t-2 -44.5t-1 -25.5q0 -6 -1 -38.5t-1 -70v-70.5v-39q0 -5 3.5 -19.5t5.5 -29.5 t-1.5 -26.5t-15.5 -11.5q-25 -1 -29.5 13t-5.5 26q0 6 1 28t4 49t5 54.5t2 44.5zM379 531q1 -1 1 -4q0 -7 3 -12q0 -1 0.5 -32.5t0.5 -79.5v-100.5t-0.5 -98.5t-0.5 -78v-32z" />
<glyph unicode="&#xbd;" horiz-adv-x="1829" d="M1408 372q-19 -8 -31 -5q-4 2 -7.5 11.5t-3.5 25.5t4 35t19 41q14 19 31.5 30.5t34 17t29 7t17.5 1.5q4 0 15.5 -1.5t24.5 -5.5t28 -7l-4 16l42 -28l30 -25t19 -22q3 -8 5 -26.5t1.5 -38t-4.5 -36.5t-8 -25q-6 -9 -25.5 -21l-42 -25.5l-43 -26t-27.5 -19.5 q-10 -7 -23.5 -22.5l-28.5 -34t-26 -34.5t-12 -23q-4 -15 -4.5 -21t8.5 -9q8 -2 17.5 1t16.5 4q10 3 18 0.5t20 -2.5q4 0 22 -1.5t38.5 -3t36.5 -1.5t22 1l29 15.5t36 4.5q17 -7 24.5 -25t4.5 -27q-6 -10 -23 -21.5t-25 -11.5q-9 0 -18.5 5t-18.5 5q-5 0 -35 1t-65.5 3 t-66 4.5t-37.5 2.5q-26 4 -37 9q-4 0 -5.5 16.5t-1.5 37t4.5 43.5t14.5 37q21 30 43.5 51t48.5 36q12 7 36.5 19t47.5 27.5t37.5 33.5t6.5 36q-14 35 -34.5 56t-65.5 19q-47 -2 -73 -23t-29 -28q-4 -11 -4 -12q-1 -4 -1 -6q4 5 7 6q9 3 9 -6l-6 -20t-12 -15zM1493 450 q-4 0 -10 -2q-9 -4 -24 -17q-15 -18 -16.5 -36.5t-9.5 -29.5q-4 -7 -10 -11.5t-13 -7.5q-7 -5 -18 -9l4 8q3 4 8 8q4 4 8.5 4.5t8.5 0.5q2 2 7 10t8 15q0 1 1 1t1 3l2 1l-2 -1q0 8 2 15q4 16 8 30q5 12 26 16q8 2 19 2zM1692 388q-3 -16 -6 -30q-4 -12 -5 -24t-6 -18 q-6 -11 -18.5 -24t-27.5 -22q-7 -3 -25 -14.5l-38.5 -24.5l-37.5 -24.5l-23 -15.5q-15 -11 -23 -19q-7 -7 -11 -13l49 -10h-13h-13t-11 2q-9 0 -20 -4q-6 -1 -10 -4q-1 -1 -2 -1q-4 0 2 13q4 9 18.5 21t31.5 24.5t32 22t21 11.5q5 4 18 10.5l28 14.5t29.5 17l22.5 14 q9 4 15 20.5l12 34.5q7 19 11 43zM1712 40q-1 -11 -20 -14q-10 -1 -22 -1q4 -3 7 0q4 0 15 6l13 7q3 2 7 2zM1106 495q0 -8 -27 -38q-3 -5 -20.5 -29.5l-41.5 -59.5l-52.5 -73t-53 -74l-42.5 -62.5t-24 -36.5q-9 -12 -19.5 -27.5l-20 -29.5t-18 -23t-12.5 -5q-9 5 -4.5 15.5 t13.5 29.5q4 9 15 27.5l23 38l23.5 37.5t17.5 26q5 6 29 41l50.5 76l50.5 81.5t34 59.5q19 41 31 47.5t18 16.5q5 8 8 7.5t5 -4.5q4 -6 10.5 -18t6.5 -23zM856 82q-4 -3 -0.5 5t13.5 23l23 34t26 41l80 110l-65 -101l-47 -73t-30 -39zM312 267q0 18 -2 47.5t-5 59t-5 51.5 t-4 22q-15 4 -26 -11q-4 -6 -13 -21.5t-16 -18.5q-8 -4 -19 0q-7 0 -12 2q11 12 17 23q7 8 13 17.5t11 15.5q1 5 12 19.5l22 30t22.5 27t16.5 11.5q8 0 13 1t10 7q3 7 3 13v6l-12 9q7 -4 15 -10q13 -11 19 -20q5 -13 -3.5 -5.5t-13.5 6.5q-2 0 -4 -2t-6 -3q-3 -2 -5 -5 q2 -4 5 -12q2 -4 3.5 -12t1.5 -15t-0.5 -28t-1.5 -45t-2 -44.5t-1 -25.5q0 -6 -1 -38.5t-1 -70v-70.5v-39q0 -5 3.5 -19.5t5.5 -29.5t-1.5 -26.5t-15.5 -11.5q-25 -1 -29.5 13t-5.5 26q0 6 1 28t4 49t5 54.5t2 44.5zM379 531q1 -1 1 -4q0 -7 3 -12q0 -1 0.5 -32.5t0.5 -79.5 v-100.5t-0.5 -98.5t-0.5 -78v-32z" />
<glyph unicode="&#xbe;" horiz-adv-x="1811" d="M1610 517q-2 -11 -2 -18q-2 -7 -2 -14.5t-4 -12.5q-3 -5 -4 -26.5t-1 -46.5v-48t2 -34t2 -29.5v-38v-35t1 -19.5q3 -7 10.5 2t19.5 15q12 9 15 11t12 6q7 1 22.5 -16.5t15.5 -31.5q0 -23 -19 -35q-16 -12 -35 -7q-8 4 -21.5 10t-20.5 4q-7 -3 -1 -29l10 -43 q3 -15 -1 -20.5t-14 -14.5q-8 -7 -11.5 -7t-18.5 5q-6 2 -8 18t-2 34.5t2 34t2 16.5q0 10 -13 18q-5 4 -16 -5.5t-19 -12.5q-4 -1 -34 -1h-65h-89l5 5q4 4 7.5 24t6.5 29q4 8 8.5 20t11.5 28q3 7 26 35l48.5 59l47.5 57.5t23 31.5q3 6 7.5 16t11.5 23t11 22.5t5 14.5 q4 8 18.5 16.5t17.5 12.5q2 1 2 4t2 5q0 4 1 7v-4q0 -8 4 -9q3 -6 10.5 -10t12.5 -16zM1560 188q0 5 1.5 40.5t1.5 76.5t-2 76t-8 41q-4 1 -10.5 -5.5t-15 -17.5t-16 -22t-11.5 -15q-2 -5 -13 -19.5l-22.5 -29.5t-24 -28t-17.5 -20q-12 -13 -26.5 -35t-10.5 -27q2 -3 1 -5.5 t0.5 -4t7 -1.5t20.5 1q27 5 52 5t35 -3q11 0 18 -3.5t16 -6.5q9 -4 16 -4.5t8 7.5zM1488 287q-11 -7 -17 -16q-7 -8 -13 -16.5t-11 -12.5q-2 -4 4.5 -5t17.5 -1q12 0 29 2q-4 -2 -10 -2h-17q-9 0 -26 -5.5t-15 -0.5q0 4 10 13t20 20q12 12 28 24zM1098 495q0 -8 -27 -38 q-3 -5 -20.5 -29.5l-41.5 -59.5l-52.5 -73t-53 -74l-42.5 -62.5t-24 -36.5q-9 -12 -19.5 -27.5l-20 -29.5t-18 -23t-12.5 -5q-9 5 -4.5 15.5t13.5 29.5q4 9 15 27.5l23 38l23.5 37.5t17.5 26q5 6 29 41l50.5 76l50.5 81.5t34 59.5q19 41 31 47.5t18 16.5q5 8 8 7.5t5 -4.5 q4 -6 10.5 -18t6.5 -23zM848 82q-4 -3 -0.5 5t13.5 23l23 34t26 41l80 110l-65 -101l-47 -73t-30 -39zM188 422q-3 -9 -8.5 -22.5t-18.5 -16.5q-8 -1 -15.5 7t-0.5 34q4 12 15.5 31.5t30.5 37.5t47.5 30t63.5 12q37 0 63.5 -17.5t43.5 -38.5t25.5 -41.5t8.5 -26.5 q2 -10 -3 -37.5t-13 -39.5l-19.5 -27t-10.5 -19q0 -1 9.5 -8.5t20.5 -21t20.5 -36t9.5 -49.5q0 -30 -13.5 -54t-34.5 -41.5t-49 -27.5t-59 -10q-33 0 -60 8.5t-48 22.5t-34.5 29t-16.5 25q-6 10 -8.5 24t-3 28.5t0.5 24t9 9.5q14 0 20 -8t14 -16q10 -10 10.5 -13.5 t0.5 -12.5v-16.5t11 -20t37.5 -18t76.5 -8.5q52 0 73.5 18t26.5 39.5t-1 42t-9 25.5q-7 12 -20.5 24t-33.5 16q-19 2 -40.5 7t-26.5 8l-4 8t-4 15t-1 17t2 11q7 12 8 12q3 3 6 3q7 -6 15 -11q7 -4 13.5 -8.5t16.5 -2.5q17 0 43 20.5t26 60.5q0 19 -17 36t-42 26.5 t-50.5 12.5t-39.5 -4q-30 -15 -45 -29t-18 -23zM275 444q-18 -3 -27.5 -8t-15.5 -12.5t-10 -17t-10 -20.5q-12 -21 -31 -27t-16 -2q0 6 9.5 8.5t21.5 10.5q12 10 14 22t12 26q9 15 33 17q10 3 20 3zM443 305q-2 5 3.5 19l11.5 28q7 17 19 36q-1 -8 -2 -15q-2 -8 -3 -14.5 t-4 -12.5q-4 -7 -8 -13t-8 -13q-6 -6 -9 -15zM231 157l6 -11q0 -6 -5 -1t-13 12q-9 6 -15 20.5t-9 22.5q-4 4 -7.5 8t-7.5 8q-6 6 -8 11q2 0 6 -2q7 -3 13 -7q7 -6 11.5 -21t7.5 -21q4 -7 9.5 -6.5t7.5 -6.5zM482 161q4 -11 1 -23q-1 -11 -6.5 -27t-19.5 -33 q-14 -21 -30 -29.5t-28 -11.5q-17 -5 -29 -5q4 1 11 5l17 7.5l28 12.5q15 10 26 25.5t17 33.5q7 19 13 45z" />
<glyph unicode="&#xbf;" horiz-adv-x="593" d="M293 433q0 5 2 9q4 3 8 3.5t15 -1.5q10 -5 12.5 -11.5t-0.5 -11.5q-1 -7 -6 -14l-3 -26q-3 -9 -3 -19.5v-18.5q0 -16 2 -25t-2 -24q-2 -16 -14.5 -19.5t-37.5 -12.5q-12 -3 -25 -18t-24.5 -34t-18 -38t-6.5 -33t4.5 -23.5t12.5 -18.5q7 -9 19 -15q-9 5 -14 6q-3 2 -6 -1 t4 -11q12 -20 23 -27t46 -15q17 -4 35.5 2t34 17t29 23t21.5 21q16 16 22 24t-6 23q-5 8 -1.5 20.5t11.5 22t17.5 14.5t14.5 1q12 -8 9 -28.5t-3 -38.5q0 -11 -11.5 -32t-30 -42t-43.5 -37.5t-52 -16.5q-29 0 -57.5 5.5t-53.5 18.5t-44 38t-25 66q-6 39 15 75.5t48 63.5 q31 33 72 62v55q0 16 -3 25t-3.5 12t2 4t14.5 1zM341 -18q2 -4 13.5 1l25 10.5t25 13t14.5 12.5q5 10 21 21q7 4 15 8q-3 -7 -7 -12q-2 -7 -12 -17q-2 -2 -15 -13t-28 -18l-6 -3q-21 -5 -33 -5q-7 0 -13 2zM235 139q-4 4 -1 14.5l6 21t8.5 19t8.5 12.5q1 3 15.5 13 t29.5 22.5l28 24t11 16.5q-1 4 -0.5 15t2.5 22q2 12 4 26v-21q0 -9 2.5 -26.5t2.5 -23.5q0 -12 -12 -17q-5 -3 -23.5 -17.5l-28.5 -22.5q-5 -5 -12 -13t-12 -13q-7 -6 -12.5 -13.5t-9.5 -17.5q-5 -8 -7 -21zM322 543q3 -15 5.5 -14.5t-2.5 -3.5q-7 -8 -19.5 -4t-21.5 4 q-24 0 -42 26q-8 12 2 31.5t20 33.5q8 12 28 9t33 -11q15 -10 18.5 -22t3.5 -24q-6 -1 -12 -5q-6 -3 -10 -8.5t-3 -11.5z" />
<glyph unicode="&#xc0;" horiz-adv-x="594" d="M127 27q-11 2 -8 17t11 32.5t17.5 35t12.5 24.5q9 14 15 32t6 28q2 8 4 21.5t15 49.5l31.5 71t16.5 43q0 15 7 35q4 10 10 17.5t6 14.5q0 6 -4.5 15t-0.5 21q1 13 14 32.5t27 9.5q5 -5 9 -16.5t7 -24.5t5 -24.5t2 -17.5q1 -5 10 -24.5l20 -45.5l21 -51t16 -42 q5 -16 16.5 -44.5l24 -58l22 -53t13.5 -29.5q5 -13 16 -24t10 -25q-3 -13 -10.5 -19t-26.5 -5q-19 3 -25 19t-9 26q-3 11 -14.5 33.5t-16.5 24.5q-6 6 -16 -3t-22 -14q-13 -6 -28 -4t-49 2q-33 0 -45 -4.5t-24 -4.5q-13 0 -17 8t-15 7q-9 0 -6.5 -9t1.5 -18t-6.5 -26.5 t-13.5 -31.5q-10 -12 -16 -7t-13 7zM378 234q-6 10 -18 37.5t-26.5 57.5l-26.5 54.5t-16 27.5q-7 3 -10 -3.5t-6 -14.5l-15 -16.5t-2 -7.5q2 -3 7.5 -7t5.5 -8q0 -2 -6 -17.5l-14 -36.5l-15.5 -41.5t-10.5 -29.5q-1 -9 -7.5 -19l-12.5 -20t-9.5 -17.5t-0.5 -10.5 q10 -3 17 -4t28 7q19 7 28 10t13 2q5 -4 12.5 -5.5t25.5 -1.5q10 0 20.5 -2.5t21.5 -5.5t18 -2t9 10q2 14 0 30t-10 34zM253 222l9 35t9.5 27.5t9.5 14.5l-4 -13q-2 -18 -4 -23q-3 -4 -6 -10.5t-7 -12.5zM267 204h8q7 0 13 3q5 3 9 -4.5t6 -16.5zM211 76q30 2 59 6 q23 1 45.5 3t34.5 -2zM205 70q2 -11 -2.5 -20.5t-12.5 -19.5q-7 -8 -19 -18l16 17q5 8 12 24q3 7 6 17zM500 125q-1 2 -7.5 19l-16.5 43.5t-23.5 59l-27.5 67.5l-72 183q48 -109 80 -194l28.5 -69l24 -60t14.5 -40t0 -9zM349 633q14 -6 29 -18.5t5 -12.5q-7 0 -8.5 -3 t-9.5 -3q-4 0 -10.5 1.5t-16.5 5.5q-8 4 -19 9l-31 21l-24.5 15.5t-16.5 10.5q-10 4 -14 7.5t-14 7.5q-8 1 -19.5 9t-1.5 22q8 14 22 16.5t25 -9.5q8 -13 24.5 -27t29.5 -21q12 -5 24 -14.5t26 -16.5zM232 634q-2 0 0 5.5t-2 9.5l43 -27q9 -7 26 -14q6 -4 15 -6l15 -10 l-52 23l-19 11q-18 8 -26 8z" />
<glyph unicode="&#xc1;" horiz-adv-x="594" d="M125 26q-11 3 -8.5 18t11 32.5t18 34.5t13.5 25q8 14 14 32.5t6 27.5q3 8 4.5 21.5t16.5 49.5q13 35 30 71t17 43q0 16 7 35q3 11 9 18t6 13q0 7 -4 16t-1 21q2 12 14 32t27 10q5 -4 9.5 -15.5t7 -25t4 -25t1.5 -15.5q2 -6 11 -26t19.5 -46l21 -51t16.5 -42 q5 -16 16 -44.5t24 -58t22.5 -53t11.5 -29.5q6 -14 17.5 -24.5t10.5 -23.5q-4 -15 -11 -21.5t-26 -4.5q-20 4 -26.5 19.5t-7.5 26.5q-4 11 -15 32.5t-16 25.5q-6 6 -16.5 -3t-23.5 -14q-12 -6 -27 -4t-48 2q-31 0 -43.5 -4.5t-24.5 -4.5t-17 8t-16 7q-8 0 -5 -9t0 -18 q-2 -9 -7 -26.5t-14 -32.5q-9 -12 -15 -6.5t-13 6.5zM374 234q-4 10 -17 37.5l-26.5 57.5l-25.5 55t-16 27q-6 2 -9 -4l-7 -14q-7 -9 -14.5 -16.5t-3.5 -7.5l9 -7t5 -8q0 -2 -6 -17.5l-13.5 -36.5t-16 -41.5t-9.5 -29.5q-3 -8 -9 -19t-12 -20.5t-9.5 -18t0.5 -9.5 q8 -3 16.5 -4t27.5 5q19 9 27.5 12t13.5 1q5 -3 13 -5t25 -2q8 0 20 -3t22.5 -5t17.5 -1t8 9q3 15 1 31t-12 34zM251 222q4 19 10 35q3 14 8 27t10 15l-3 -13q-3 -18 -4 -23q-4 -4 -7 -10.5l-6 -12.5zM266 204h7q7 0 13 3q4 3 9 -5.5t6 -14.5zM209 76q30 2 59 5q22 2 45 3.5 t36 -1.5zM202 68q4 -9 -1 -19.5t-12 -18.5q-7 -9 -21 -17l17 16q5 8 12 24q4 7 5 15zM498 125q-1 2 -7.5 19l-17 43.5l-23.5 59l-28 67.5l-72 182l81 -193l28.5 -69.5t24 -60t14 -39.5t0.5 -9zM196 626q-10 0 5 13t30 18q14 7 25.5 16.5t22.5 15.5q11 7 28 21t28 26 q8 13 23 10t24 -17t-3.5 -21.5t-20.5 -9.5q-9 -4 -12.5 -7.5t-14.5 -7.5q-6 -2 -17.5 -9.5l-24.5 -16.5q-15 -9 -30 -21q-10 -6 -17 -8q-10 -4 -16.5 -6t-10.5 -2q-9 0 -11 3t-8 3zM347 672q-4 -2 -2 -7.5t-1 -5.5q-6 0 -24 -8l-20 -11l-50 -22l14 8q9 3 15 7q15 7 26 14z " />
<glyph unicode="&#xc2;" horiz-adv-x="587" d="M119 27q-11 2 -8.5 17t11 32.5t18 34.5t13.5 25q8 14 14 32.5t6 27.5q3 8 4 21.5t16 49.5q14 35 31 71t17 43q0 16 7 35q2 11 8.5 17.5t6.5 13.5t-4.5 16t-1.5 21t15.5 31.5t26.5 10.5q6 -4 10 -15.5t6.5 -25t4 -25t1.5 -16.5q3 -5 12 -25.5t19 -46t21 -50.5t16 -42 q5 -16 16 -44.5t24 -57.5t22.5 -53t12.5 -29q5 -15 16.5 -25.5t10.5 -23.5q-4 -15 -11 -21t-26 -5q-20 4 -26 19.5t-8 26.5q-4 11 -15 33t-16 26q-5 5 -16 -4t-23 -14q-13 -5 -27.5 -3t-47.5 2t-45 -5t-24 -5q-13 0 -17.5 8t-15.5 7q-8 0 -5.5 -9t0.5 -18q-2 -8 -7.5 -26 t-13.5 -32q-9 -13 -15.5 -7.5t-12.5 7.5zM369 234q-4 10 -17 37.5l-26.5 57.5t-26 55t-16.5 27q-6 2 -8.5 -4t-7.5 -14q-7 -10 -14.5 -17.5t-3.5 -7.5q4 -2 9 -6t5 -8q0 -2 -6.5 -17.5t-14 -36.5l-15.5 -41.5t-9 -29.5q-3 -8 -9 -19t-12 -20.5t-9.5 -17.5t0.5 -10 q8 -2 16 -3.5t27 5.5q19 8 28 11.5t14 0.5q6 -3 13.5 -5t25.5 -2q8 0 19.5 -2.5t22.5 -4.5t17.5 -1.5t8.5 8.5q2 15 0 31.5t-11 33.5zM245 222q4 19 9 35q3 14 8.5 27t10.5 15l-2 -13q-4 -18 -6 -23q-4 -4 -6.5 -10.5t-5.5 -12.5zM260 204h7q8 0 13 3t9.5 -5.5t5.5 -14.5z M203 77q30 1 58 4q24 3 47 4t35 -1zM196 69q4 -10 -1.5 -20t-12.5 -18q-6 -10 -20 -18l16 16q6 8 13 25q4 6 5 15zM492 126q-1 1 -7 18t-17 43.5l-24 59l-28 67.5l-72 182l82 -193q13 -35 27.5 -69.5t24 -59.5t14 -39.5t0.5 -8.5zM55 626q-10 0 5 13t29 19q13 7 26 16.5 t25 14.5q13 7 29 21t26 27q11 12 24.5 9t22.5 -16q8 -15 -3.5 -22.5t-19.5 -8.5q-9 -5 -13.5 -8t-12.5 -7l-18 -10.5t-25 -15.5q-15 -10 -31 -22q-11 -5 -19 -8l-16.5 -5t-10.5 -2q-9 0 -9.5 2.5t-8.5 2.5zM208 673q-2 -3 -1 -8.5t0 -5.5q-7 0 -25 -8l-21 -11l-50 -22l13 8 q8 3 16 7q15 7 26 14zM487 665q15 -6 30 -19t5 -13q-8 0 -9.5 -2.5t-9.5 -2.5t-26 7q-9 2 -17 8q-17 12 -33 22l-26 15.5t-16 9.5q-11 4 -14.5 7.5t-11.5 7.5q-9 2 -21.5 10t-2.5 22q8 13 23 16t24 -10q10 -12 27 -26t29 -21q12 -6 23.5 -15.5t25.5 -15.5zM371 666 q-4 0 -1 5.5t-3 9.5l42 -27q11 -7 28 -14q6 -4 14 -7l15 -8l-51 22l-21 11q-4 1 -8 3l-8 4q-5 1 -7 1z" />
<glyph unicode="&#xc3;" horiz-adv-x="587" d="M122 28q-9 1 -7 16t9.5 32.5t17 35t13.5 23.5q10 16 14.5 34t7.5 27q2 8 3 21.5t15 49.5q13 35 31 71t18 43q0 16 6 35q4 11 10.5 18t6.5 15q0 5 -5 14.5t-2 20.5q1 5 5 14.5t11 17t14 12t12 -1.5q7 -5 10.5 -16.5t6 -24.5t4.5 -24.5l3 -17.5q2 -4 10.5 -24.5l19.5 -46 l22 -50.5t15 -42q5 -16 16.5 -44l22.5 -57l20.5 -52t13.5 -30q6 -14 18 -24.5t8 -25.5q-1 -14 -8 -20t-27 -5q-19 4 -25 20t-9 26q0 6 -4 15.5t-9 18t-9.5 17t-7.5 9.5q-4 3 -15.5 -6t-24.5 -13q-13 -5 -26.5 -2.5t-47.5 2.5t-46 -5.5t-25 -5.5q-12 0 -17.5 9t-13.5 6 q-9 -1 -6.5 -8.5t1.5 -17.5q-3 -8 -7.5 -27t-14.5 -31q-8 -14 -14 -8.5t-14 7.5zM374 236q-6 8 -18 35.5l-26 59t-26.5 55.5t-16.5 26q-8 4 -10 -2t-9 -17l-13.5 -15.5t-2.5 -9.5q4 -1 9.5 -5t5.5 -7q0 -2 -6.5 -18.5l-14.5 -37.5l-16 -41.5t-9 -29.5q-2 -8 -8 -19 t-12 -20.5t-10 -17t0 -8.5q8 -3 15.5 -4.5t26.5 4.5t27.5 10.5t14.5 1.5q11 -6 41 -6q6 0 17.5 -2.5t22.5 -4.5t19 -1.5t8 7.5q7 34 -9 67zM249 222q3 19 8 35q4 14 9.5 27t11.5 15l-5 -13l-6 -22q-2 -3 -4.5 -10.5t-6.5 -13.5zM263 206h6q9 0 14 2q7 2 11 -6.5l7 -14.5z M207 79q30 3 58 4q25 3 46.5 3.5t33.5 -3.5zM199 70q3 -18 -14 -37q-6 -9 -19 -20q0 2 3 5q3 4 5.5 6t5.5 5l12 24q4 9 7 17zM496 127q-1 1 -7 17.5t-17 43l-24 59l-27 67.5l-72 182q48 -109 81 -193q13 -35 27.5 -69.5l24 -59t14 -38t0.5 -9.5zM150 663q1 4 4 7.5t7 7.5 q4 3 7 4q0 -1 4 -1q7 0 13 6t16.5 14t25.5 16t30 13t27 5q25 -3 40 -28t32 -33q18 -7 24 0.5t13 4.5q8 -4 9.5 -16t10.5 -3q8 8 8 18v7l10 13q4 6 8 10.5t8 0.5q3 -4 5 -15.5t-2 -15.5q-1 -4 -10.5 -12t-22 -15.5t-26 -14.5t-25.5 -4q-13 1 -25.5 9t-23 17.5t-18.5 18 t-9 10.5q-6 5 -18 5t-23 -6q-9 -4 -16 -11l-11 -11q-3 -2 -4 -9.5t-6 -17.5q-8 -9 -15.5 -9t-17.5 4q-11 3 -22.5 8t-6.5 23zM468 705q20 8 9 -37q-4 -10 -14 -17.5t-21.5 -13t-20 -7.5t-5.5 -1q7 3 14 8.5t15 7.5q9 4 14.5 7t8.5 11q4 11 4 23v14zM237 658l7 4q5 2 17 5 q12 0 17 -3q2 -1 5 -2z" />
<glyph unicode="&#xc4;" horiz-adv-x="610" d="M139 27q-9 2 -7 17t10 32.5t17.5 35t13.5 23.5q9 15 15.5 33.5t6.5 27.5q1 8 2.5 21.5t16.5 49.5q13 35 30 71t17 43q0 16 7 35q4 11 10 17.5t6 12.5q0 9 -4.5 17.5t-0.5 20.5q1 13 14 32t27 10q5 -5 10 -16.5t7 -24.5t4 -24.5t2 -16.5q1 -5 10 -25.5l20 -46l21.5 -50.5 t14.5 -42l17.5 -45l23 -58.5t22 -52.5t13.5 -27q5 -15 16.5 -25.5t10.5 -25.5q-4 -13 -11 -19t-27 -5q-19 4 -25 19.5t-7 26.5q-4 11 -15.5 32.5t-17.5 25.5q-4 5 -14.5 -4t-23.5 -13q-12 -6 -27 -4.5t-49 1.5q-33 0 -45 -4t-24 -4t-17 7.5t-14 6.5q-10 0 -7.5 -9t1.5 -17 q-3 -10 -7.5 -27.5t-14.5 -31.5q-8 -12 -14 -6.5t-14 6.5zM390 234q-5 10 -17 37.5t-26.5 57.5l-26.5 55t-16 27q-7 4 -10 -2t-7 -16l-13.5 -16t-4.5 -8q4 -2 9.5 -6.5t5.5 -8.5q0 -2 -6 -17.5l-14 -36.5l-16.5 -41.5t-9.5 -29.5q-1 -8 -7.5 -19l-12.5 -20.5t-10 -18t0 -9.5 q8 -4 16.5 -4.5t27.5 5.5q20 7 29 11t13 2q5 -3 12.5 -5t25.5 -2q10 0 21.5 -3l21.5 -5.5t17.5 -1t8.5 9.5q2 14 0.5 30.5t-11.5 34.5zM267 222q2 19 8 35q4 14 9.5 27t9.5 15l-4 -13q-3 -18 -4 -23q-3 -4 -6 -10.5t-7 -12.5zM280 204h7q8 0 14 2q5 4 9 -4.5l7 -14.5z M224 76l59 6q23 1 46 3t36 -2zM216 69q4 -10 -1.5 -19.5l-11.5 -19.5q-7 -8 -19 -18l15 17l13 24q3 8 4 16zM513 126q-1 2 -7.5 18.5l-17 43l-23.5 59l-27 67.5l-72 183q48 -109 81 -194q13 -35 27.5 -69.5t24 -60.5l14 -39t0.5 -8zM209 717q6 0 15.5 -3.5t20.5 -10 t17.5 -19t5.5 -29.5q-3 -36 -22.5 -44.5t-33.5 -6.5q-27 3 -27 22q0 7 10 12q2 4 8 7q1 7 -5 12.5t-3 20.5q0 2 0.5 4t0.5 5q-4 -12 -7 -22t-4 -16q-3 -4 -3 -6.5t-2 -5.5q-2 -4 -2 -6q-1 6 -1 13v13q0 4 -2 9.5t-2 13.5q0 18 12 25.5t18 8.5q4 3 6 3zM350 626q0 8 16 18 l18 11q0 2 -3.5 4t-9 3.5t-9 4t-3.5 11.5q2 13 4.5 26t10.5 13q6 0 16 -3.5t20 -10t17.5 -19t5.5 -29.5q-3 -36 -23 -44.5t-33 -6.5q-27 3 -27 22zM352 707q-5 -8 -2.5 -29t0.5 -29q-3 -4 -3 -6.5t-3 -5.5q-1 -4 -1 -6q-1 6 -1 13v13q0 4 -2.5 9.5t-2.5 13.5q0 7 7 18 q4 5 8 9z" />
<glyph unicode="&#xc5;" horiz-adv-x="611" d="M140 26q-11 3 -8.5 18t11 32.5t18 34.5t13.5 25q8 14 14 32.5t6 27.5q3 8 4.5 21.5t16.5 49.5q13 35 30 71t17 43q0 16 7 35q3 11 9 18t6 13q0 7 -4 16t-1 21q2 12 14 32t27 10q5 -4 9.5 -15.5t7 -25t4 -25t1.5 -15.5q2 -6 11 -26t19.5 -46l21 -51t16.5 -42 q5 -16 16 -44.5t24 -58t22.5 -53t11.5 -29.5q6 -14 17.5 -24.5t10.5 -23.5q-4 -15 -11 -21.5t-26 -4.5q-20 4 -26.5 19.5t-7.5 26.5q-4 11 -15 32.5t-16 25.5q-6 6 -16.5 -3t-23.5 -14q-12 -6 -27 -4t-49 2q-30 0 -42.5 -4.5t-24.5 -4.5t-17 8t-16 7q-8 0 -5 -9t0 -18 q-2 -9 -7 -26.5t-14 -32.5q-9 -12 -15 -6.5t-13 6.5zM389 234q-4 10 -17 37.5l-26.5 57.5l-25.5 55t-16 27q-7 2 -10 -4t-6 -14q-7 -9 -14.5 -16.5t-3.5 -7.5l9 -7t5 -8q0 -2 -6 -17.5l-13.5 -36.5t-16 -41.5t-9.5 -29.5q-3 -8 -9 -19t-12 -20.5t-9.5 -18t0.5 -9.5 q8 -3 16.5 -4t27.5 5q19 9 27.5 12t12.5 1q5 -3 13.5 -5t25.5 -2q8 0 20 -3t22.5 -5t17.5 -1t8 9q3 15 1 31t-12 34zM266 222q4 19 10 35q3 14 8 27t9 15l-3 -13q-2 -18 -3 -23q-4 -4 -7 -10.5l-6 -12.5zM281 204h7q6 0 12 3q5 3 10 -5.5t6 -14.5zM224 76q30 2 59 5 q22 2 45 3.5t36 -1.5zM217 68q4 -9 -1 -19.5t-12 -18.5q-7 -9 -21 -17l17 16q5 8 12 24q4 7 5 15zM513 125q-1 2 -7.5 19l-17 43.5l-23.5 59l-28 67.5l-72 182l81 -193l28.5 -69.5t24 -60t14 -39.5t0.5 -9zM362 633q14 -5 29 -19t4 -14q-7 0 -7.5 -2.5t-10.5 -2.5 q-3 0 -10.5 2t-15.5 5q-9 4 -19 9l-32 22l-23.5 15t-16.5 11q-9 4 -13.5 7.5t-12.5 5.5q-10 3 -21.5 10.5t-1.5 22.5q8 14 22 16.5t25 -9.5q8 -12 24 -26.5t29 -21.5q12 -5 24 -14.5t27 -16.5zM246 634q-1 0 0 5.5t-1 8.5l42 -26q7 -7 24 -15q6 -3 16 -7l13 -8l-50 23 l-20 10q-17 9 -24 9z" />
<glyph unicode="&#xc6;" horiz-adv-x="880" d="M766 35q-1 -6 -6.5 -11.5t-12 -10.5t-13 -8t-9.5 -3q-5 0 -16.5 2t-24.5 4.5t-25 4.5t-18 2h-18.5h-34.5t-43.5 0.5t-44 0.5t-35 0.5t-18.5 0.5q-10 2 -17.5 15.5t-7.5 18.5q0 3 -2.5 26.5t-4.5 49.5q-11 -3 -21.5 -5t-16.5 -3q-7 -3 -13.5 -4t-15.5 -0.5t-21 1t-30 0.5 q-17 1 -28.5 0.5t-20.5 -2t-15.5 -3t-13.5 -1.5q-5 0 -8 2.5t-5.5 5t-5.5 4.5t-8 1q-11 0 -11 -8t-4 -16q-2 -8 -11.5 -24t-23.5 -26q5 3 10.5 9t10.5 12l13 15q-2 -9 -11 -18.5t-19 -17.5q-12 -9 -26 -17q1 1 3 2t8 5q-9 -5 -16.5 -5t-13 2t-9.5 5t-7 3q-10 2 -3.5 16 t20 31t29 32.5l21.5 21.5q13 16 24.5 32t13.5 24q2 3 4 7.5t6 11.5l11 18.5t19 28.5t26.5 34.5l26.5 32.5l20.5 25.5t8.5 13.5q3 8 6.5 15.5t11.5 18.5q8 9 16 15.5t11 14.5q1 5 -0.5 13.5t3.5 19.5q3 6 14 14.5t24.5 16t26 10.5t18.5 -2l-2 -1q11 3 32.5 3t44 -0.5t42 -1.5 t25.5 -1q7 0 20.5 0.5t27.5 2t25.5 3.5t16.5 5q9 5 23 8t22 -2q7 -4 16 -20t8 -27t-8.5 -21.5t-24.5 -12.5q-15 -1 -33.5 1.5t-32.5 2.5q-3 0 -13 -0.5t-23.5 -1t-29.5 -1t-32 -1.5q-38 -2 -84 -3q-2 -5 -2.5 -26.5t-0.5 -46.5v-65q11 1 21 2q8 1 16.5 1.5t13.5 0.5 q4 0 15 -0.5t23 -1.5l23 -2t16 0q6 0 13 3t15 5.5t15 4t13 -0.5q10 -2 22 -8t10 -26q0 -19 -5 -29.5t-25 -15.5q-10 -2 -15.5 -2t-9 1t-7 3t-8.5 4q-5 1 -20 1h-31.5t-31 -0.5t-18.5 -0.5q-7 -4 -18 -2t-19 -1q-3 -1 -5 -15.5t-3 -32t-0.5 -33t2.5 -18.5q2 -7 3.5 -16.5 t1.5 -13.5q0 -2 -1.5 -7l-3 -10.5t-1.5 -10.5t3 -6q4 -1 10.5 -0.5t13.5 1.5l14 2t11 1t24.5 -2l45 -4.5t46 -4t29.5 -0.5t20.5 5.5l25.5 9t24.5 7t18.5 0.5q6 -2 9.5 -9t6 -15.5t3 -17t0.5 -14.5zM412 375q0 7 0.5 17t2.5 22q-12 -5 -26.5 -14.5t-19.5 -14.5 q-10 -9 -20 -16t-7 -8q4 0 9 -4t5 -8q-1 -2 -13 -17l-26.5 -34.5l-28 -38.5t-17.5 -27q-5 -8 -14.5 -18.5t-18.5 -19.5t-14.5 -15.5t-1.5 -7.5q6 -3 14 -4.5t30 5.5q21 5 32 8.5t17 -0.5q5 -1 13 -3t28 -2q9 0 24.5 -2.5t30.5 -5.5q-1 10 -1 17.5v12.5q0 9 1.5 19l3 19.5 t3.5 17t3 10.5q1 5 0 19t-2.5 31t-3.5 34t-3 28zM513 356q3 -8 14 -11.5t23 -4t20.5 -0.5t5.5 -1q-2 -1 -17.5 -1.5t-33.5 -1.5q-21 -1 -47 -2q1 5 3 9q4 10 4 18q-2 3 -1.5 12.5t0.5 20.5q0 12 1 28h95q-18 -2 -32 -5q-13 -2 -24 -4.5t-13 -4.5q-5 -4 -4.5 -20t6.5 -32z M513 208q5 1 14 3t18 3.5t17.5 2t13.5 -2.5q2 0 -5 -1t-17.5 -1.5t-22 -1.5t-18.5 -2q-3 -2 -5 -2t0 0q1 2 5 2zM498 144q2 -8 3 -15t1 -9l-12 -1q-2 25 -3 46q-1 18 -1.5 34t-0.5 21l6 -21q2 -10 4 -24t3 -31zM502 120l9 2q-1 -2 -3 -4t-3.5 -2t-2.5 4zM356 96l-151 -4 q33 3 63 5q26 2 51 2t37 -3zM353 297l-9 -13q-4 -5 -7.5 -11t-6.5 -10q-3 -3 -9 -9.5t-11 -12.5q-6 -8 -13 -16q10 18 21 33q9 13 18 24.5t17 14.5zM339 191l-34 18h8h7t8 1q8 2 10.5 -4.5t0.5 -14.5z" />
<glyph unicode="&#xc8;" horiz-adv-x="594" d="M360 447q-9 0 -37.5 -0.5t-58.5 -1.5q-38 -3 -85 -4q-1 -4 -2.5 -26t-1.5 -46v-66q14 2 22 2h17.5t12.5 1h16t22 -1.5t21.5 -1.5h16.5q10 2 27 8.5t27 4.5q11 -4 23 -10.5t11 -23.5q0 -19 -5.5 -30.5t-24.5 -14.5q-19 -4 -24.5 -2t-16.5 5q-5 1 -19.5 2.5t-30.5 1.5 t-30 -1.5t-18 -2.5q-9 -2 -19.5 -0.5t-17.5 0.5q-4 -2 -5.5 -16l-3.5 -32t-1.5 -33t3.5 -17q3 -10 4.5 -19.5t1.5 -13.5q0 -3 -5 -16.5t2 -16.5q8 -4 23.5 -0.5t23.5 3.5q6 0 26.5 -1.5t43 -4t45 -4.5t30.5 -1q7 0 19 5t26 9t25.5 6.5t18.5 1.5q12 -5 16 -24t3 -33 q-2 -10 -18 -20.5t-25 -10.5q-5 0 -15 2t-24 4.5t-26 4t-17 1.5h-34.5t-61.5 1.5t-62 2t-35 0.5q-9 1 -17.5 15t-8.5 18q0 2 -2 22.5l-4.5 45t-4 47.5t-1.5 31q0 17 4 38t7 29q1 4 0.5 18.5t-2.5 30.5t-4 34t-2 28q0 11 1.5 31.5t4 41.5t6.5 37.5t11 20.5q8 5 30 6t45.5 0 l45 -2t28.5 -1t19.5 1t27 2t26 3t16.5 4q9 6 23 8.5t21 -1.5q9 -2 18 -19t6 -28q-1 -10 -8 -21.5t-23 -11.5q-16 -1 -34.5 0t-31.5 1zM294 423q-15 -1 -30 -5q-12 -5 -22.5 -6t-14.5 -3q-5 -4 -4.5 -21t5.5 -32q3 -9 14.5 -12t24 -4t19.5 -0.5t5 0.5q-4 -1 -17 -1t-33 -3 q-21 -1 -48 -3l4 11q4 10 4 18q-2 3 -1 12.5t1 19.5v29h93zM360 335q2 -3 7.5 -7l9.5 -7l-28 19zM223 207q-1 0 7 1.5t20 4t24 4.5t17 -2q2 0 -7 -0.5t-22 -2.5t-24.5 -3t-14.5 -2zM201 219q3 -9 7 -20q3 -8 4 -22.5t3 -32.5q1 -29 7 -29q1 0 5 5l-20 -1q-3 24 -4 44 q-2 18 -2 35v21zM361 633q14 -5 28.5 -18.5t5.5 -13.5q-8 0 -9 -2.5t-9 -2.5q-4 0 -10.5 2l-16.5 5q-8 4 -19 9l-31 21q-14 8 -25 15l-17 11q-8 4 -12.5 7.5t-13.5 5.5q-9 3 -20 10.5t-3 22.5q10 14 23.5 16.5t24.5 -9.5q9 -12 24.5 -26.5t27.5 -21.5q13 -5 25.5 -14.5 t26.5 -16.5zM245 634q-2 0 -0.5 5.5t-1.5 8.5l41 -25q10 -7 25 -15q8 -3 17 -7l13 -8l-49 23l-21 10q-17 8 -24 8z" />
<glyph unicode="&#xc9;" horiz-adv-x="601" d="M360 447q-7 0 -36 -0.5t-61 -3.5q-39 -1 -84 -3q-2 -4 -3 -25.5t-1 -46.5v-65q12 2 22 2h16t14 1h15.5t22 -1.5t23 -1.5h16.5q10 2 27 8.5t28 4.5q9 -5 22 -11t10 -23q0 -19 -4.5 -31t-25.5 -14q-19 -4 -24.5 -2t-14.5 4q-6 3 -20.5 4t-31.5 1t-31.5 -1t-17.5 -4 q-9 -1 -19 1t-17 -1q-4 -1 -6 -15t-3.5 -32t-1 -33t2.5 -17q4 -10 4.5 -19.5t0.5 -12.5q0 -4 -4 -16.5t3 -16.5q6 -5 22.5 -0.5t24.5 4.5q6 0 26 -2t44 -5t45.5 -5t29.5 1q9 0 21 4l25 8.5t24.5 7.5t18.5 0q12 -5 16.5 -24t2.5 -32q-2 -10 -17.5 -20.5t-24.5 -10.5 q-6 0 -16 1.5t-23.5 4t-26 4.5t-17.5 2h-33.5t-62.5 1t-62.5 1.5t-34.5 0.5q-11 3 -18.5 16t-7.5 18q0 1 -2 21.5l-4.5 45t-4 47.5t-1.5 31q0 17 4 38t6 29q2 4 1 18.5t-2.5 30.5t-3.5 33.5t-2 28.5t1 30.5t3.5 41t7 38.5t11.5 21t29 5t46 0t45.5 -2t28.5 -1t20.5 1l27 2 t25 2.5t17.5 5.5q8 6 22 8.5t21 -1.5q10 -3 18.5 -20t6.5 -28q-2 -10 -8.5 -21t-23.5 -11q-15 -3 -34 -1t-32 2zM295 423q-18 -3 -32 -6q-12 -4 -22.5 -5t-13.5 -4q-6 -3 -5 -20t6 -32q2 -9 13.5 -12t23.5 -4t20 -0.5t7 0.5q-4 -1 -18.5 -1t-33.5 -3q-20 -1 -47 -3l4 11 q3 10 3 18q-2 2 -1 11.5t1 20.5v29h95zM360 335q4 -3 8.5 -7t9.5 -7l-29 19zM223 207q-2 0 5.5 1.5l20.5 4t25.5 4.5t17.5 -2q1 0 -8.5 -0.5t-23 -2.5t-25 -3t-12.5 -2zM200 219q4 -9 6 -19q5 -9 5.5 -23.5t3.5 -32.5q1 -29 6 -29q2 0 6 5l-22 -1q-1 24 -3 46q-2 17 -2 33.5 v20.5zM209 626q-9 0 6 13t29 19t25.5 16.5t23.5 14.5q13 8 29 21.5t27 25.5q10 13 24.5 11t23.5 -17q9 -14 -3 -22t-22 -10q-8 -4 -12 -7t-14 -6q-5 -4 -16.5 -11l-25.5 -16q-16 -8 -32 -21l-18 -9q-8 -3 -15 -5t-11 -2q-8 0 -10 2.5t-9 2.5zM361 674q-2 -4 -1 -9.5t0 -5.5 q-7 0 -25 -8l-21 -11l-51 -23l14 9q10 3 16 7q15 7 26 14z" />
<glyph unicode="&#xca;" horiz-adv-x="597" d="M359 448q-6 0 -35.5 -1t-59.5 -4q-40 -1 -84 -2q-3 -4 -3.5 -26t-0.5 -46v-66q12 2 21 2h16.5t13.5 1h16t21.5 -1.5t22.5 -1.5h17q9 0 26 7.5t28 5.5q10 -4 22.5 -10.5t10.5 -23.5q0 -19 -5 -30.5t-25 -14.5q-19 -4 -24.5 -2t-15.5 5q-5 2 -20 3t-31.5 1t-31 -1t-16.5 -3 q-10 -2 -20 0t-17 0q-4 -2 -6 -16t-3.5 -32t-0.5 -33.5t2 -18.5q4 -8 4.5 -17.5t0.5 -12.5q0 -4 -4 -17t3 -17t23 0t25 4q5 0 25.5 -2t43.5 -4.5t45 -4.5t30 1q8 0 20.5 4l25.5 8.5t24.5 7.5t17.5 0q13 -5 17.5 -24.5t1.5 -31.5q-1 -11 -16.5 -21t-25.5 -10q-5 0 -15.5 1.5 t-24 4t-25.5 4.5t-18 2h-33t-62 1t-62 1.5t-35 0.5q-11 3 -18.5 15.5t-7.5 18.5q0 1 -2 21.5l-4.5 45t-4 47.5t-1.5 31q0 17 4 38t6 29q2 4 1 18.5t-2.5 30.5t-3.5 34t-2 28q0 11 1.5 31t3.5 41t6.5 38t11.5 21t29.5 5.5t46 0t45 -2t28.5 -0.5q6 0 20 0.5t27.5 2t25 3 t16.5 5.5q9 5 23 8t21 -2q9 -2 18 -19t6 -28q-1 -11 -8 -22t-23 -11q-15 -3 -34 -0.5t-33 2.5zM294 423q-16 -3 -30 -5q-12 -4 -23 -5.5t-14 -4.5q-5 -3 -4.5 -20t6.5 -32q1 -9 12.5 -11.5t24 -4t20 -1t5.5 0.5q-4 -1 -17.5 -1t-32.5 -3q-21 -1 -48 -3l4 11q3 10 3 18 q-1 3 -0.5 12.5t0.5 20.5v28h94zM359 335q5 -3 9.5 -7t8.5 -7l-28 19zM223 207q-1 0 6.5 1.5l20.5 4t24.5 4.5t16.5 -2q2 0 -7 -0.5t-22.5 -2.5t-25.5 -3t-13 -2zM200 219q4 -9 7 -19q4 -9 4.5 -23.5t3.5 -32.5q1 -30 7 -30q1 0 5 6l-22 -1l-2 46q-3 17 -3 33.5v20.5z M60 626q-10 0 5 13t30 18q14 7 25.5 17.5t23.5 14.5q12 8 29 21.5t27 25.5t24.5 10t23.5 -17q9 -13 -3 -21.5t-22 -9.5q-8 -4 -12 -7.5t-14 -5.5q-5 -5 -16.5 -11.5t-25.5 -16.5q-16 -8 -33 -20q-9 -6 -17 -10q-8 -2 -15 -4t-11 -2q-8 0 -10 2.5t-9 2.5zM212 674 q-2 -4 -1 -9.5t0 -5.5q-7 0 -25 -8l-21 -11l-51 -23l14 9q9 3 16 7q17 7 26 13zM491 664q14 -5 29 -18t7 -13q-7 0 -9 -3t-10 -3q-10 0 -28 7q-8 4 -17 10q-15 12 -31 20q-14 10 -26.5 16.5t-16.5 10.5q-11 3 -14 6.5t-11 7.5q-10 1 -22 9.5t-4 21.5q9 15 24 18t23 -10 q11 -13 28 -26.5t29 -20.5q13 -6 24.5 -16t24.5 -17zM376 667q-4 0 -1.5 4.5t-2.5 8.5l42 -25q11 -9 27 -15q7 -3 15 -7l15 -8l-52 21l-21 11q-3 2 -8 4t-7 3q-6 3 -7 3z" />
<glyph unicode="&#xcb;" d="M361 446q-9 0 -37.5 -0.5t-60.5 -1.5q-38 -3 -85 -4q-1 -3 -2.5 -25t-1.5 -46v-66q14 2 22 2h17.5t12.5 1h16t22 -1.5t22.5 -1.5h17.5q10 2 27 8.5t27 4.5q11 -4 23 -10.5t11 -23.5q0 -19 -5.5 -30.5t-24.5 -14.5q-19 -4 -24.5 -2t-16.5 5q-5 1 -20 2.5t-31.5 1.5 t-30.5 -1.5t-18 -2.5q-9 -2 -19.5 -0.5t-17.5 0.5q-4 -2 -5.5 -16l-3.5 -32t-1.5 -33t3.5 -17q3 -9 4.5 -18.5t1.5 -13.5q0 -3 -5 -16.5t2 -16.5q8 -4 23.5 -0.5t23.5 3.5q6 0 26.5 -1.5t44 -4t46 -4.5t30.5 -1q7 0 19 5t26 9t25 6.5t18 1.5q12 -5 16 -24t3 -33 q-2 -10 -18 -20.5t-25 -10.5q-4 0 -14 2t-24 4.5t-26 4t-17 1.5h-35t-62.5 1.5t-62.5 2t-35 0.5q-9 1 -17.5 15t-8.5 18q0 2 -2 22.5t-4 44.5t-3.5 47t-1.5 31q0 17 3.5 38t6.5 29q1 4 0.5 18.5t-2.5 30.5t-3.5 34t-1.5 28q0 11 1 31.5t3.5 41t6.5 37t11 20.5q8 5 30 6 t45.5 0l45.5 -2t30 -1q7 0 19.5 1t27 2t26 3t16.5 4q9 6 23 8.5t21 -1.5q8 -2 17 -19t6 -28q-1 -10 -8 -21.5t-22 -11.5q-16 -1 -34.5 0t-31.5 1zM295 423q-17 -1 -32 -5q-12 -5 -22.5 -6t-14.5 -3q-5 -4 -4.5 -21t5.5 -32q3 -9 14.5 -12t24 -4t20 -0.5t5.5 0.5 q-4 -1 -17.5 -1t-33.5 -3q-21 -1 -48 -3l4 11q4 10 4 18q-2 3 -1 12.5t1 19.5v29h95zM361 335q2 -3 7.5 -7l9.5 -7l-28 19zM222 207q-1 0 7 1.5t20 4t24.5 4.5t17.5 -2q2 0 -7.5 -0.5t-22.5 -2.5t-24.5 -3t-14.5 -2zM200 219q3 -9 7 -20q3 -8 4 -22.5t3 -32.5q1 -28 7 -28 q1 0 5 5l-20 -1q-3 23 -4 43q-2 18 -2 35v21zM333 626q0 9 17 18l17 10q0 4 -3 5.5t-8.5 3.5t-9 5t-3.5 9q1 14 4 27.5t11 13.5q5 0 14.5 -3.5t20.5 -10.5t18 -19.5t5 -30.5q-2 -35 -22 -44t-33 -5q-28 2 -28 21zM335 707q-4 -6 -2 -27.5t0 -30.5q-2 -3 -2 -5.5t-3 -6.5 q-1 -3 -1 -6q-2 6 -2 13v14q0 3 -2 8.5t-2 15.5q0 6 7 17q4 4 7 8zM195 718q5 0 14.5 -3.5t20 -10.5t18 -19.5t5.5 -30.5q-4 -35 -23.5 -44t-33.5 -5q-26 2 -26 21q0 8 8 12l10 8q1 7 -5 12.5t-5 18.5q0 5 1 6t1 5q-3 -12 -5.5 -23t-4.5 -16q-4 -3 -4 -5.5t-1 -6.5 q-3 -3 -3 -6q-1 6 -1 13v14q0 3 -1.5 8.5t-1.5 15.5q0 17 12.5 24t17.5 8q3 4 7 4z" />
<glyph unicode="&#xcc;" d="M386 525q5 0 11 -2t12 -3q2 -4 3.5 -13t1.5 -17q0 -11 -3 -25q3 3 3 11q0 4 -1.5 11.5t-2.5 15.5q-1 10 -7.5 13.5t-14 3.5t-14 -2t-7.5 -2q-5 -3 0.5 -6.5t11.5 -6.5q7 -2 13.5 -9.5t8.5 -17.5q4 -9 -4.5 -18.5t-16.5 -19.5q-9 -7 -25.5 -3.5t-21.5 6.5q-14 7 -25 -3 q-7 -3 -7 -10.5v-19.5v-258v-19t1 -25t1.5 -23.5t4.5 -10.5q5 -1 15.5 8t17.5 9q8 0 15.5 -7t14.5 -6q5 0 11 -0.5t14 -5.5q7 -7 4.5 -23.5t-12.5 -25.5q-8 -14 -25.5 -14.5t-31.5 3.5q-15 2 -32.5 2h-35.5t-46 -2.5t-33 2.5q-4 3 0 10.5l9 16.5t12.5 16.5t9.5 7.5 q8 0 14.5 -3t15.5 0q11 3 16 14t6 23q0 5 -0.5 44t-2 86t-2.5 89t-1 55q0 53 -17 75q-4 3 -15 3t-22.5 0.5t-20.5 5.5t-7 18q1 13 9 19t17 7.5t20 -0.5t17 -2q14 0 28.5 -1t40.5 2q27 4 33 13t13 13q5 2 11.5 8.5t17.5 3.5q19 -5 0 -12q-7 -4 -10 -3l-3 4h13zM240 540 q8 4 32 3.5t48 -3.5q30 -1 66 -4zM339 264q2 -49 3 -90.5t3 -48.5q1 -11 4 -12q0 -1 1 0l-9 -1l-4 280zM352 105q4 12 16.5 9.5t30.5 -12.5q18 -8 17 -29t-1 -25q2 -3 1 6t-1 16q0 5 -8.5 14.5t-12.5 12.5q-2 0 -8.5 1t-15 1t-13.5 1t-5 5zM358 633q15 -7 30 -19t6 -12 q-8 0 -9 -3t-10 -3q-8 0 -26 7q-10 4 -18 9q-16 13 -32 21l-26 15.5t-16 10.5q-9 4 -13 7.5t-12 4.5q-9 4 -21.5 11t-3.5 22q8 13 23 16.5t25 -8.5q11 -13 26.5 -27.5t27.5 -20.5q13 -7 24.5 -16.5t24.5 -14.5zM244 633q-4 0 -1.5 5.5t-2.5 7.5l43 -25q9 -7 25 -14 q7 -4 16 -8l14 -7l-52 22l-19 11q-4 1 -8 2.5t-8 3.5q-6 2 -7 2z" />
<glyph unicode="&#xcd;" horiz-adv-x="604" d="M400 524q5 0 11 -1t12 -4q4 -3 4.5 -11.5t0.5 -18.5q0 -11 -1 -24q1 4 1 11q0 5 -0.5 12t-1.5 16q-3 8 -9 11.5t-13 3.5t-14 -1.5t-9 -1.5q-3 -4 2 -7.5t10 -4.5q7 -4 14.5 -11t8.5 -17q4 -10 -4 -19.5t-16 -17.5q-10 -8 -27 -4t-21 5q-15 7 -26 -1q-6 -4 -6 -11v-19 v-259v-19t1 -25.5t2 -23t3 -9.5q6 -2 17 7t17 9q7 0 15 -7.5t15 -4.5q6 0 12 -1.5t13 -6.5q6 -7 4 -22.5t-11 -26.5q-8 -13 -26 -13.5t-33 2.5q-13 4 -31 4h-35q-18 0 -46.5 -3t-33.5 3q-3 1 0.5 9.5t8.5 17t12 15.5t11 7q7 0 13 -3t17 1q11 2 15 13.5t5 23.5q0 5 -0.5 44 t-1 85.5t-2 89t-1.5 55.5q0 53 -18 75q-2 2 -14 2t-23.5 1.5t-20 5.5t-7.5 19q3 12 10.5 18.5t16 7t19.5 -1.5t18 -2q15 0 30 -0.5t39 3.5q26 2 33 11t14 13q5 3 11 9.5t16 2.5q20 -5 0 -12q-7 -4 -8 -1l-4 2h12zM256 541q6 2 30.5 1.5t49.5 -1.5q30 -2 64 -6zM355 264 q1 -49 2 -90.5t3 -47.5q2 -11 3 -13q0 -1 3 0l-10 -1l-5 279zM367 104q3 12 16.5 10t31.5 -12q17 -8 16.5 -29.5t-0.5 -24.5q1 -4 0.5 5t-0.5 16q0 5 -9 15t-13 13q-1 0 -8.5 0.5t-15 0.5t-13 1.5t-5.5 4.5zM222 626q-9 0 6 13t29 19q15 7 26 16.5t23 14.5q12 7 28.5 21 t27.5 27q8 12 23 9t24 -16q8 -15 -4 -22.5t-20 -8.5q-10 -5 -13 -8t-14 -7q-6 -3 -16.5 -10.5t-25.5 -15.5l-31 -22q-10 -5 -17 -8l-16.5 -5t-10.5 -2q-9 0 -9.5 2.5t-9.5 2.5zM375 673q-5 -3 -2.5 -8.5t0.5 -5.5q-6 0 -23 -8l-22 -11l-49 -22l13 8q10 3 16 7q14 7 25 14z " />
<glyph unicode="&#xce;" horiz-adv-x="607" d="M385 525q5 0 11 -1.5t12 -4.5q4 -3 4.5 -11.5t0.5 -18.5q0 -11 -1 -24q1 4 1 11q0 5 -0.5 12t-2.5 16q-2 8 -8 11.5t-13 3.5t-14 -1.5t-9 -1.5q-3 -4 1.5 -7t10.5 -5q7 -4 14.5 -10.5t8.5 -17.5q4 -10 -4 -19.5t-16 -17.5q-10 -8 -27 -4t-21 5q-15 7 -26 -1q-6 -4 -6 -11 v-19v-259v-19t1 -25.5t2 -23t3 -9.5q6 -2 16.5 7t17.5 9t15 -7.5t15 -4.5q6 0 12 -1.5t13 -6.5q6 -7 4 -22.5t-11 -26.5q-8 -12 -26 -13t-33 2q-13 4 -31 4h-35q-18 0 -46.5 -2.5t-33.5 2.5q-3 1 0.5 9.5t8.5 17t12 15.5t11 7q7 0 13 -3t17 1q11 2 15 13.5t5 23.5 q0 6 -0.5 44.5t-1 85t-2 89t-1.5 55.5q0 53 -18 75q-2 3 -14 3t-23.5 1t-20 5t-7.5 19q3 13 10.5 19t16 6.5t19.5 -1.5t18 -2q15 0 30 -0.5t39 3.5q26 2 33 11t14 13q5 3 11 9.5t16 2.5q20 -5 0 -12q-7 -4 -8 -1l-5 3h13zM241 541q6 3 30.5 2l49.5 -2q30 -2 64 -6zM340 264 q1 -49 2 -90.5t3 -47.5q2 -11 3 -13q0 -1 3 0l-10 -1l-5 280zM352 104q3 12 16.5 10t31.5 -11q17 -9 16.5 -30.5t-0.5 -24.5q1 -4 0.5 5t-0.5 16q0 5 -9 15t-13 13q-1 0 -8.5 0.5t-15 0.5t-13 1.5t-5.5 4.5zM61 626q-9 0 6 13t30 19q13 7 24.5 16.5t24.5 14.5q12 7 29 21 t26 27q10 12 25 9t23 -16q9 -15 -3 -22.5t-22 -8.5q-8 -5 -11.5 -8t-14.5 -7q-5 -3 -16.5 -10.5t-25.5 -15.5q-16 -10 -32 -22q-10 -5 -18 -8t-15.5 -5t-10.5 -2q-9 0 -10.5 2.5t-8.5 2.5zM216 673q-5 -3 -2.5 -8.5t-1.5 -5.5q-5 0 -23 -8l-20 -11l-52 -22l14 8q9 3 16 7 q16 7 27 14zM493 665q14 -6 29 -19t5 -13q-7 0 -8 -2.5t-11 -2.5q-8 0 -26 7q-9 2 -17 8q-17 12 -33 22l-25.5 15.5t-16.5 9.5q-9 4 -13.5 7.5t-12.5 7.5q-9 2 -21.5 10t-2.5 22q8 13 23 16t24 -10q11 -12 27.5 -26t28.5 -21q12 -6 23.5 -15.5t26.5 -15.5zM377 666 q-2 0 -0.5 5.5t-1.5 9.5l42 -27q11 -7 26 -14q7 -4 16 -7l14 -8l-50 22l-22 11q-18 8 -24 8z" />
<glyph unicode="&#xcf;" horiz-adv-x="596" d="M386 525q5 0 11.5 -2t11.5 -4q3 -4 4 -12.5t1 -17.5q0 -10 -2 -24q2 3 2 11q0 4 -1 11.5t-3 15.5q-1 9 -7 12.5t-13.5 3.5t-14.5 -2t-8 -2q-4 -3 1.5 -6t10.5 -6q7 -3 13.5 -10.5t8.5 -16.5q4 -10 -4 -19.5t-17 -18.5q-9 -7 -25.5 -3.5t-21.5 5.5q-14 7 -24 -2 q-7 -3 -7 -10.5v-19.5v-258v-19t0.5 -25t1 -23t5.5 -10q5 -2 15 7t17 9q8 0 15.5 -7t14.5 -5q5 0 11.5 -1t14.5 -6q7 -7 4 -23.5t-12 -25.5q-9 -14 -26.5 -14.5t-30.5 3.5q-15 3 -33.5 3h-36.5q-17 0 -45 -3t-33 3q-4 3 0 10t8.5 16t12 16.5t10.5 7.5q8 0 14 -2.5t16 -0.5 q11 3 15.5 14t5.5 23q0 5 -0.5 44t-2 86t-2 89t-0.5 55q0 53 -18 75q-4 3 -14.5 3t-22 0.5t-20.5 5t-8 18.5q2 12 10 18.5t17 7.5t19.5 -1t17.5 -2q14 0 28.5 -0.5t40.5 2.5q27 4 33.5 12.5t12.5 12.5q6 3 12 9t17 4q19 -6 0 -13q-7 -4 -10 -2l-2 4h12zM239 540q8 4 32.5 3 t49.5 -3q30 -2 65 -4zM340 264q1 -49 2.5 -90.5t2.5 -47.5q2 -11 4 -13q0 -1 2 0l-10 -1l-4 280zM352 105q4 12 17 9.5t30 -12.5q18 -8 17.5 -29t-0.5 -25q1 -3 0.5 6t-0.5 16q0 5 -9 14.5t-13 12.5q-1 0 -8 1.5t-15 1.5t-13.5 0.5t-5.5 4.5zM341 626q0 9 16 18l18 11 q0 3 -3.5 5t-9 3t-8.5 4t-3 10q1 15 3.5 27.5t12.5 12.5q4 0 14 -3t20.5 -10t18 -20t4.5 -29q-3 -35 -22.5 -44t-33.5 -6q-27 2 -27 21zM344 707q-6 -7 -3 -28t0 -29q-3 -5 -3 -7.5t-1 -5.5q-3 -4 -3 -5q-1 5 -1 12v14q0 4 -2 8.5t-2 14.5q0 7 8 17q3 6 7 9zM201 717 q6 0 15.5 -3t20 -10t17.5 -20t6 -29q-4 -35 -23 -44t-34 -6q-26 2 -26 21q0 7 8 13q4 2 10 6q1 7 -5 12.5t-5 19.5q0 4 1.5 6t1.5 5l-7 -23t-4 -15q-4 -5 -4 -7.5t-2 -5.5q-1 -4 -1 -5q-3 5 -3 12v14q0 4 -1 8.5t-1 14.5q0 17 12 24t18 10q2 2 6 2z" />
<glyph unicode="&#xd1;" horiz-adv-x="629" d="M161 661q3 4 5 8t7 7q4 3 7 6q0 -3 4 -3q7 0 15 8q5 5 16.5 12.5t27 16t31 14t27.5 5.5q25 -4 40.5 -28.5t34.5 -33.5q19 -8 25 0.5t14 4.5q6 -3 8 -16t11 -4q10 9 10 18v7l10 14q4 5 8.5 9.5t8.5 0.5q4 -2 5.5 -13.5t-1.5 -17.5q-3 -3 -13 -11t-22.5 -15.5t-27.5 -14 t-28 -5.5q-12 1 -25 9.5t-24 18t-19 17.5t-10 12q-5 2 -17.5 2t-23.5 -5q-10 -2 -17 -9.5t-12 -10.5q-2 -4 -3.5 -10.5t-5.5 -18.5q-8 -8 -16 -8t-20 3q-11 4 -23 9.5t-7 21.5zM494 705q20 6 8 -38q-4 -10 -15 -17.5t-23 -13.5t-21 -7.5t-4 0.5q6 1 13 7t18 9q8 3 14 5.5 t10 10.5q2 12 2 23v16zM252 657l7 3q6 4 19 5q12 0 15 -1q4 -3 5 -4zM190 64q-3 -5 -13 -16.5t-18 -14.5q-19 -4 -31 36q-3 8 -3 46v82t1.5 79.5t1.5 39.5q0 11 4 27t4 29t6 34t4 29q0 4 -4.5 13t-7.5 18.5l-6 20t-3 14.5q3 10 22 19t25 14q5 6 6.5 11.5t1.5 1.5v-11.5 t6 -11.5q5 -6 15 -30t20 -33q3 -5 15 -29l25 -51l24.5 -51t16.5 -31q8 -15 35 -44q13 -17 28 -32q-2 -3 -6 -3q-4 -1 -5.5 -1t-5.5 -2q-6 -4 -4.5 -13t4.5 -19q2 -10 7 -20t14 -24q7 -12 17 -14t17 6q9 4 11.5 23t6.5 33q0 6 1 39t3 69t2.5 69t0.5 44q3 21 -4.5 46.5 t-7.5 34.5q1 9 9.5 13.5t15.5 6.5q6 4 17 20q6 7 12 16q1 -7 5 -14q3 -6 3.5 -13t3.5 -10q3 -6 -2 -20.5t-8 -38.5q-1 -13 -1.5 -44t-0.5 -69.5t-1.5 -78.5t-1.5 -71q0 -66 8 -94.5t4 -47.5q-1 -8 -10.5 -13t-19.5 -5.5t-21 0t-16 5.5q-5 1 -8.5 11.5t-6 21l-5 20t-3.5 12.5 l-37 47l-15 23.5l-30.5 50l-38 62.5l-39 62l-31 49.5t-14.5 22.5q-7 5 -12.5 0t-15.5 -12q-3 -4 -4 -15.5t1 -24.5t3 -30q5 8 10 15q7 13 9 9q2 -7 -0.5 -25l-6.5 -46v-44.5t2 -57.5t2.5 -51.5t0.5 -28.5q2 -9 10 -20t7 -20zM210 63q0 1 -1 12.5t-3 29t-2.5 40t-3.5 45.5 q-3 54 -8 122q5 -18 11 -33q3 -14 5.5 -27.5t2.5 -16.5q-1 -4 -1 -31.5v-58.5v-82zM365 273q-2 0 -10 11q-5 7 -17 27t-34 60q-21 39 -43 72l-40 58q-21 28 -41 51q6 -1 12 -5q7 -5 12.5 -8l11.5 -6q8 -4 17 -18.5l20.5 -34t22 -40t19.5 -36.5q9 -14 21 -37l24 -44zM500 76 q2 -3 2 -7v-6q0 -7 -2 -8v21zM483 22q-5 -6 -12 -8l-10.5 -7t-8.5 -3q-11 -4 -13 -4h-8zM231 219l3 -8l-10 -10zM496 290v73t2 65l3.5 49t5.5 24q-1 -102 -1 -183v-187q0 -6 -4 -10.5t-4 -8.5t-1 -6.5t-1 -5.5v-2v192z" />
<glyph unicode="&#xd2;" horiz-adv-x="591" d="M296 468q-7 0 -31.5 -5.5t-51 -24t-48.5 -53t-23 -91.5q-4 -57 12 -96.5t39.5 -64.5t51.5 -35.5t52 -10.5q23 0 44.5 18.5t37 47t24.5 62t9 64.5q0 30 -7.5 61.5t-22.5 59t-37.5 46t-48.5 22.5zM368 498q48 -47 79 -149q7 -25 8.5 -57t-5 -66.5t-17 -68t-23.5 -59.5 q-13 -27 -39 -45.5t-58.5 -24.5t-72 5t-76.5 42q-40 31 -56 81t-18.5 101.5t9.5 101.5t31 84q17 33 49.5 49.5t63 22.5t53.5 6t22 2q-10 17 8 8t42 -33zM530 183q-7 1 -7 11q0 2 4 6zM393 526q21 -16 39 -42.5t30 -54t19 -52t8 -36.5q3 -11 3.5 -38.5t-3.5 -61.5t-13 -70.5 t-25 -66.5q-18 -30 -45 -50.5t-54 -32.5q-32 -15 -64 -22q19 5 39 15q18 8 40.5 20.5t42.5 33.5q41 40 54 77.5t18 82.5q4 23 2 51t-6 57.5t-11.5 57t-14.5 49.5q-8 21 -26 40.5t-38.5 35t-38.5 25t-22 9.5q-2 3 -7.5 4t-12.5 3q-7 3 -16 6q13 0 29 -6q14 -2 31.5 -11 t41.5 -23zM248 431q-19 -18 -35 -41q-14 -19 -24 -49t-6 -67q1 -38 8 -60.5t14.5 -35.5t16.5 -19t14 -12q12 -12 23 -21.5t7 -13.5q-1 -4 -11.5 -1.5t-23.5 9t-25 18t-19 26.5q-14 30 -20.5 80.5t6.5 96.5q8 22 20.5 38.5t24.5 28.5q14 12 30 23zM372 594q-9 0 -10 -2.5 t-10 -2.5q-8 0 -26 7l-18 9q-16 12 -31 21l-27.5 16t-14.5 11q-11 2 -14.5 5.5t-12.5 7.5q-9 2 -20.5 10t-3.5 21q9 15 24 17.5t23 -9.5q11 -13 27 -26.5t30 -20.5q12 -5 23 -15.5t26 -16.5q13 -6 28 -19t7 -13zM259 616q11 -8 26 -15l16 -7l14 -8l-50 22l-22 11 q-3 1 -7.5 3t-7.5 4q-5 2 -8 2t0 5t-3 9z" />
<glyph unicode="&#xd3;" horiz-adv-x="594" d="M295 467q-6 0 -30.5 -5t-51 -23.5t-49 -53t-23.5 -91.5q-4 -57 12 -96.5t40 -64.5t51.5 -35t52.5 -10q23 0 44 18t36.5 46.5t24.5 62t9 64.5q0 29 -7.5 61t-22.5 59.5t-37.5 45.5t-48.5 22zM367 497q48 -46 79 -148q7 -26 8.5 -57.5t-4.5 -66t-17 -68t-23 -58.5 q-14 -28 -40 -46t-58.5 -24.5t-72 4.5t-77.5 42q-39 32 -55.5 81.5t-18.5 100.5t9.5 101.5t30.5 84.5q18 33 50.5 49t63 22t54 6t21.5 3q-9 16 8.5 7.5t41.5 -33.5zM529 183q-7 1 -7 11q0 2 4 6zM392 526q22 -16 39.5 -42.5t29.5 -54t19 -52t8 -36.5q3 -11 3.5 -38.5 t-3.5 -61.5t-12.5 -70.5t-25.5 -66.5t-44.5 -50.5t-54.5 -32.5q-31 -15 -64 -22q19 6 40 15q17 8 39.5 20.5t43.5 34.5q40 39 53 76.5t19 82.5q4 23 2 51t-6.5 57.5t-11.5 57t-14 49.5q-8 20 -26.5 40t-39 35.5t-38 25t-21.5 9.5q-3 3 -8.5 3.5t-12.5 3.5q-6 2 -16 5 q14 0 30 -5q14 -3 31.5 -12t40.5 -22zM248 431q-19 -18 -35 -41q-14 -19 -25 -49t-7 -67q2 -38 9.5 -60.5t15 -35.5t16 -19t14.5 -12q12 -12 23 -21.5t7 -13.5q-2 -4 -12 -1t-23 9t-25 17.5t-19 26.5q-15 30 -22 80.5t7 96.5q8 22 21 38t25 29q14 12 30 23zM213 625 q-11 0 4 13.5t30 19.5q13 6 25.5 15.5t24.5 15.5q12 7 29 21t25 26q11 13 25.5 10t22.5 -16q9 -15 -2.5 -22.5t-19.5 -10.5q-10 -3 -14 -6.5t-13 -7.5q-6 -4 -18 -10.5t-24 -14.5q-17 -10 -32 -22q-10 -6 -19 -8q-9 -4 -16 -6t-11 -2q-8 0 -9.5 2.5t-7.5 2.5zM363 659 q-6 0 -24 -10l-20 -9l-52 -23l15 8q8 4 15 7q16 8 27 15l42 26q-4 -3 -2 -8.5t-1 -5.5z" />
<glyph unicode="&#xd4;" d="M296 465q-7 3 -31 -2.5t-50.5 -24t-49 -53t-23.5 -91.5q-4 -57 12 -96.5t40 -65t52 -35.5t51 -10t44 18.5t37 47t24.5 61.5t8.5 65q0 30 -7.5 62t-22.5 58.5t-37 45t-48 20.5zM368 498q49 -49 79 -148q7 -26 8 -58t-5 -67t-17 -68t-23 -59q-14 -27 -39.5 -45.5t-58 -24.5 t-71.5 4.5t-77 42.5q-40 31 -56.5 80.5t-18.5 101.5t10 102.5t31 84.5q17 32 49.5 48.5t63.5 22.5t53.5 6t21.5 3q-10 16 7.5 7t42.5 -33zM530 182q-7 1 -7 11q0 3 4 7zM392 526q22 -16 39.5 -42.5t30 -53.5t19 -51.5t8.5 -36.5q3 -13 3.5 -40t-3.5 -61t-13 -71t-25 -67 q-18 -30 -45 -50t-54 -33q-32 -15 -64 -21q19 5 39 15q18 8 40.5 20t42.5 34q41 39 54 76.5t18 82.5q4 23 2 52t-6 58t-11.5 57t-14.5 50q-8 20 -26.5 39.5t-39 35.5t-38 25.5t-21.5 9.5q-3 2 -8.5 3t-11.5 3q-7 3 -17 6q14 0 30 -6q14 -2 31.5 -11t40.5 -23zM249 431 q-19 -17 -35 -40q-14 -20 -24.5 -49.5t-6.5 -68.5q1 -38 8.5 -60.5t15 -35.5t16.5 -19t14 -11q12 -12 23 -21.5t7 -14.5q-1 -4 -11.5 -1t-23.5 9t-25 17.5t-19 26.5q-15 30 -22 81t7 98q8 21 21 37.5t25 28.5q14 12 30 23zM94 657q14 7 25.5 16.5t23.5 15.5t29 20.5t28 26.5 q8 12 23 9.5t25 -16.5q8 -15 -4 -22.5t-21 -9.5q-9 -3 -12.5 -6.5t-14.5 -7.5q-5 -4 -16 -10.5l-26 -15.5q-16 -9 -31 -21q-11 -6 -18 -9q-9 -4 -16 -6t-11 -2q-8 0 -9 3t-10 3q-8 0 7 13.5t28 18.5zM211 659q-5 0 -23 -10l-22 -9l-50 -23l14 8q8 4 16 7l26 14l42 26 q-6 -2 -3 -7.5t0 -5.5zM527 632q-8 0 -9 -2.5t-9 -2.5q-4 0 -10.5 1.5t-16.5 5.5q-8 3 -19 8l-31 22q-15 8 -26.5 15.5t-15.5 10.5q-10 4 -14 7.5t-14 7.5q-8 1 -19.5 8.5t-3.5 22.5q10 14 24 16.5t24 -9.5q9 -12 25.5 -26.5t28.5 -21.5q13 -5 25.5 -14.5t26.5 -16.5 q14 -5 28.5 -18.5t5.5 -13.5zM415 653q11 -7 26 -13q8 -4 17 -8l13 -9l-50 23l-22 11q-18 9 -24 9q-2 0 0 5t-2 8z" />
<glyph unicode="&#xd5;" horiz-adv-x="605" d="M302 468q-7 0 -30.5 -5t-50 -24t-49.5 -53t-24 -92q-4 -57 12 -97t40.5 -64.5t52.5 -35t52 -10.5q23 0 44 18.5t37 46.5t25 61t9 66q0 31 -8 63.5t-23.5 59.5t-38 45t-48.5 21zM374 498q49 -44 80 -147q8 -27 8 -58.5t-5.5 -66t-17 -68t-23.5 -59.5q-14 -27 -39.5 -46 t-57.5 -25t-71 4t-77 43q-40 31 -56 80t-18 102t9.5 103.5t30.5 82.5q18 34 50.5 50t63 22t52.5 6t19 4q-8 18 9.5 7t42.5 -34zM536 182q-10 3 -6 10q0 4 4 8zM400 526q21 -16 39 -42t30 -53t19 -52t8 -37q3 -10 3 -38.5t-3.5 -62.5t-12 -71.5t-25.5 -67.5t-44.5 -49.5 t-53.5 -31.5q-32 -15 -65 -22q20 5 39 13q18 10 39 23t43 32q42 41 54.5 79t18.5 83q5 23 2.5 51.5t-6.5 57t-12 57t-15 48.5q-8 22 -27 41t-38.5 35.5t-36.5 26t-22 10.5q-8 0 -21 7q-8 4 -15 6q15 0 30 -6q15 -3 32 -11.5t40 -25.5zM255 431q-19 -17 -35 -39 q-14 -21 -24.5 -50.5t-6.5 -67.5q1 -40 8 -61.5t15.5 -34.5t17.5 -19t14 -12l23.5 -22.5t6.5 -12.5q-1 -2 -12 -0.5t-24 8.5t-25 17.5t-18 27.5q-13 30 -21.5 81.5t8.5 95.5q7 23 19 38.5t24 27.5q14 12 30 23zM125 663q1 4 3.5 7.5t7.5 5.5l6 6q0 -2 4 -2q7 0 14 7 q5 6 15.5 14t25.5 15.5t30 13t28 5.5q25 -4 39.5 -28.5t31.5 -32.5q17 -7 23.5 0.5t13.5 4.5q7 -4 8.5 -16t10.5 -4q8 9 8 17v9l11 13q4 6 8 10t8 1q3 -4 5 -15.5t-2 -17.5q-1 -2 -10.5 -10.5t-22 -16.5t-26.5 -14t-26 -4q-13 2 -25 10t-22.5 17.5t-18 18t-10.5 10.5 q-4 4 -17 4t-22 -5q-10 -4 -16.5 -11l-10.5 -11q-3 -3 -4.5 -10.5t-6.5 -16.5q-7 -10 -14.5 -10t-18.5 4q-11 3 -22.5 8.5t-5.5 23.5zM442 705q20 7 9 -37q-4 -11 -14 -19t-21.5 -13t-20.5 -7t-5 0q7 2 14 7t16 9q8 4 13.5 7t8.5 11q4 11 4 23v13zM212 657l7 4q5 3 17 6 q12 0 15 -3q4 -1 6 -3z" />
<glyph unicode="&#xd6;" horiz-adv-x="597" d="M296 468q-7 0 -31.5 -5.5t-50.5 -23.5t-48.5 -53t-24.5 -92q-4 -58 12.5 -97t40 -64.5t51.5 -35.5t52 -10q23 0 44 18.5t37 47t24.5 61.5t8.5 64t-7.5 63t-22 59t-37 45.5t-48.5 22.5zM368 498q47 -46 79 -148q6 -26 7.5 -58.5t-4.5 -67t-17 -67.5t-23 -59 q-14 -27 -39.5 -45.5t-58 -24.5t-72 5t-77.5 42q-39 31 -55.5 80.5t-18.5 101.5t9.5 102.5t30.5 84.5q18 32 50.5 48.5t63 22.5t53.5 6t22 3q-10 16 7.5 7t42.5 -33zM529 182q-7 1 -7 11q0 2 5 7zM392 526q22 -16 39.5 -42.5t30 -53.5t19 -51.5t8.5 -36.5q2 -11 3 -39.5 t-3 -62.5t-13 -70.5t-25 -66.5q-18 -30 -45 -50t-54 -32q-32 -15 -64 -22q19 5 39 15q18 8 40.5 20t42.5 34q41 39 53.5 76.5t18.5 82.5q4 23 2 52t-6 58t-11.5 57t-14.5 50q-8 20 -26.5 39.5t-38.5 35.5t-38 25.5t-22 9.5q-3 2 -8 3t-12 3q-7 3 -16 6q13 0 29 -6 q14 -2 31.5 -11t40.5 -23zM249 431q-19 -17 -36 -40q-13 -19 -24 -49t-7 -69q1 -38 8.5 -60.5t15 -35.5t16.5 -19t14 -11q13 -13 23.5 -22.5t6.5 -13.5q-1 -4 -11.5 -1t-23 9t-25 17.5t-18.5 26.5q-15 30 -22 81.5t7 97.5q8 22 20.5 38t25.5 28q13 13 30 23zM356 654 q0 4 -3.5 5.5t-9 3.5t-9 4.5t-3.5 9.5q2 13 4.5 27t12.5 14q4 0 14 -4.5t20 -11t17.5 -18.5t4.5 -30q-2 -35 -22 -44t-33 -5q-27 1 -27 20q0 10 16 18zM322 648q-3 -2 -3 -5t-1 -7q-3 -4 -3 -5q-1 5 -1 12v15q0 3 -2 8.5t-2 13.5t8 17q2 6 6 10q-5 -7 -2.5 -28t0.5 -31z M240 654q-4 -35 -23 -44t-34 -5q-25 1 -25 20q0 7 8 13q4 4 9 8q2 7 -4.5 11.5t-4.5 19.5q0 3 1.5 5t1.5 6q-5 -12 -7.5 -23t-3.5 -17q-4 -2 -4 -5t-2 -7q-1 -4 -1 -5q-3 5 -3 12v15q0 3 -1.5 8.5t-1.5 13.5q0 17 12.5 24.5t17.5 9.5q3 4 7 4q6 0 15 -4.5t20 -11t18 -18.5 t5 -30z" />
<glyph unicode="&#xd7;" horiz-adv-x="582" d="M359 352q9 8 26.5 3t26.5 -20q10 -13 6 -27.5t-10 -19.5q-6 -7 -13.5 -10t-13.5 -7l-16.5 -16.5t-39.5 -37.5q26 -27 28 -38t6 -12q2 -3 12 -7.5t21.5 -15t19 -21.5t0.5 -24q-9 -18 -26 -18.5t-31 8.5q-12 8 -14 20.5t-5 16.5l-52 53q-23 -23 -43 -49.5t-22 -27.5 q-4 -5 -11.5 -6t-27.5 7q-8 4 -10 19t7 27q8 14 17 20t13 10q3 3 14.5 11t28.5 22l-20 21q-9 11 -16.5 16.5t-16 9l-16.5 7t-16 14.5q-10 8 -4.5 25.5t19.5 27.5q15 9 28.5 5t21.5 -11q5 -5 7.5 -12.5t6.5 -11.5q1 0 11 -10.5l17 -17.5q6 -6 10 -15.5t11 -12.5q13 11 16 15 q4 3 10 17.5t11 19.5q8 13 14 28t15 25zM384 233q8 11 14 14.5t10 7.5q2 1 -3.5 -6.5t-13 -16t-15.5 -15.5t-11 -5l4 5q4 4 6.5 7.5t8.5 8.5z" />
<glyph unicode="&#xd8;" d="M254 458q0 -1 -8.5 -7.5t-21 -25.5t-22.5 -50t-11 -83q-2 -21 -0.5 -34t4.5 -21q1 -10 2 -15q-8 11 -13 24q-6 13 -8 30.5t5 41.5q14 45 26 73t21.5 44t16.5 20t9 3zM504 309q0 -106 -26.5 -162.5t-57.5 -80.5q-36 -30 -84 -33q22 15 42 27q18 11 33.5 21.5t23.5 16.5 q8 9 15 13.5t15 23.5t15 55.5t16 107.5q3 24 -1 46t-10 39q-6 21 -16 40q11 -7 18 -22q7 -14 12 -35.5t5 -56.5zM191 85l-25.5 -33.5t-16.5 -10.5q-11 9 8 45q2 4 5 8t6 10q-19 20 -31.5 50.5t-17.5 76.5q-11 95 1 150t32.5 85t43.5 41.5t33 17.5q10 5 28 8.5t35 4.5t31 1 h17q8 0 5.5 4.5t2.5 8.5q7 2 21.5 -14t29.5 -42q2 -1 3 -4t2 -5q16 32 27.5 38t17.5 14q4 9 6.5 8t6.5 -5q4 -3 10.5 -16.5t6.5 -24.5q0 -8 -28 -38q-1 -4 -23 -33q15 -38 26.5 -85t9.5 -88q-2 -31 -12.5 -61t-24.5 -54q-16 -29 -35 -52l-6 -9q-1 -3 -20.5 -11t-48 -11.5 t-63 1.5t-63.5 25zM143 303q4 -62 22.5 -98t31.5 -50l23.5 35.5t17.5 24.5q6 7 22 32.5l38 58.5l45 69t38 64q-18 20 -36 31t-32 14q-27 9 -42 3t-25 -13q-2 -4 -20 -15.5t-37.5 -33t-34.5 -53t-11 -69.5zM316 107q17 6 37.5 16.5t36 31.5t26.5 55.5t11 86.5q-4 65 -22 101 q-20 -32 -47 -71l-53 -76l-48.5 -68.5t-31.5 -46.5q1 -2 1 -4q0 -1 8 -8.5t21 -12t28 -7.5t33 3zM267 139q-4 -3 -1.5 3.5t10.5 18.5l19 27.5l23 33.5l67 94l-53 -83l-40.5 -59.5t-24.5 -34.5z" />
<glyph unicode="&#xd9;" horiz-adv-x="586" d="M445 557q7 -1 16 -22.5t6 -31.5q-4 -11 -7.5 -38t-7.5 -42q0 -8 -0.5 -41.5t-0.5 -71.5t0.5 -68.5t0.5 -33.5q1 -3 5.5 -22t1.5 -38q-2 -17 -29.5 -39.5t-92.5 -48.5q-33 -12 -61.5 -9.5t-53.5 14t-44 26.5t-30 28q-11 10 -15.5 57t-6.5 101t-2 100v61q0 27 -7 51t-2 34 q4 11 18 20t22 10q17 3 30 -24q5 -12 -1 -30t-9 -23q0 -3 -1.5 -31.5t-1.5 -63.5t1.5 -68t1.5 -42q1 -24 4.5 -40t7.5 -30q3 -13 0.5 -16t-4.5 -8q-1 -4 0.5 -10t10.5 -15l16.5 -18t13.5 -6q5 1 6 -1.5t10 -9.5q4 -4 6 -8t10.5 -6.5t24 -2t46.5 5.5q33 6 48.5 23.5 t21.5 40.5t6 49t2 47q1 21 0.5 62t-2 83t-1 76.5t3.5 41.5q8 13 20 21.5t19 6.5zM206 247q2 19 3 66t0 95.5t-2 87t-1 40.5q4 -45 7 -86q4 -35 5 -67.5t1 -46.5q-2 -15 -2 -40v-51q0 -30 -3 -61q-2 5 -6 12q-7 16 -2 51zM489 500q4 -84 4 -157q0 -63 -3 -126t-11 -94 q-17 -41 -49 -63t-64 -34q-36 -15 -80 -17q18 2 40 9q17 5 40.5 13.5t47.5 21.5q22 13 36 32t21.5 38t9.5 34.5t5 20.5q0 7 0.5 58t0.5 110q0 70 2 154zM349 647q13 -6 28 -18.5t4 -12.5q-6 0 -7 -3t-10 -3q-3 0 -10.5 1.5t-15.5 5.5q-8 3 -19 8l-33 22l-24.5 15.5 t-17.5 10.5q-8 4 -12.5 7.5t-12.5 7.5q-9 1 -20.5 9t-3.5 22q10 13 23.5 16t24.5 -9q9 -13 25.5 -27t28.5 -21q12 -5 24.5 -14.5t27.5 -16.5zM231 648q-2 0 -0.5 5.5t-1.5 8.5l42 -26q11 -7 26 -14q7 -4 17 -6l13 -10l-50 23l-22 11q-17 8 -24 8z" />
<glyph unicode="&#xda;" horiz-adv-x="590" d="M449 557q6 -1 15 -23t6 -31q-4 -11 -7.5 -38t-7.5 -42q0 -9 -0.5 -42t-0.5 -71t0.5 -68.5t0.5 -32.5q2 -3 6 -22t1 -38q-1 -18 -29 -40.5t-93 -47.5q-33 -13 -61.5 -10t-53.5 14.5t-44 26.5t-30 27q-11 11 -15.5 58t-6.5 100t-2 99.5v61.5q0 27 -7 50.5t-2 34.5t18.5 20 t21.5 10q18 3 30 -24q5 -13 -1 -30.5t-9 -22.5q0 -3 -1 -31.5t-1 -64t1 -67.5t1 -42q2 -23 5 -39.5t7 -29.5q3 -14 0.5 -16.5t-4.5 -8.5q-1 -4 0.5 -10t10.5 -14q8 -10 16.5 -18.5t13.5 -6.5q6 2 6.5 -1t9.5 -9q5 -4 7 -8.5t10 -7t23.5 -2t46.5 6.5q33 5 48.5 22.5t21.5 41 t6 49t2 47.5q1 20 0.5 60.5t-2 82.5t-1 77t3.5 42q8 13 20.5 21t19.5 7zM210 248q1 19 2.5 65.5t0 95t-2 87t-0.5 39.5q4 -45 6 -85q4 -36 5 -68.5t1 -45.5q-2 -15 -2 -40v-51q0 -30 -2 -61q-3 6 -7 12q-7 17 -1 52zM492 500q4 -84 4 -158q0 -61 -2.5 -124.5t-10.5 -94.5 q-18 -41 -50 -62.5t-63 -33.5q-37 -15 -80 -18q17 3 39 9l41 14t47 22q22 12 36.5 31t22 38t9.5 34.5t4 21.5q0 6 1 57t1 109q0 71 1 155zM227 625q-9 0 6 13.5t29 19.5t25.5 15.5t23.5 15.5q13 7 30 21t26 26q10 13 24.5 10t23.5 -16q9 -15 -3 -22.5t-22 -10.5 q-8 -3 -11.5 -6.5t-14.5 -7.5q-5 -4 -16.5 -10.5l-25.5 -14.5q-16 -10 -32 -22q-10 -6 -17 -8q-9 -4 -16 -6t-11 -2q-8 0 -9.5 2.5t-9.5 2.5zM382 673q-5 -3 -2.5 -8.5t-1.5 -5.5q-5 0 -23 -10l-21 -9l-51 -23l15 8q8 4 15 7q16 8 27 15z" />
<glyph unicode="&#xdb;" horiz-adv-x="604" d="M236 672q-6 -2 -3 -7.5t-1 -5.5q-6 0 -24 -10l-20 -9l-52 -22l15 7q8 4 15 7q17 8 27 14zM463 558q7 -2 15.5 -23.5t6.5 -31.5q-4 -11 -7.5 -38t-7.5 -42q0 -8 -1 -41.5t-1 -71.5t1 -68.5t1 -33.5q1 -3 5 -22t2 -38q-2 -18 -29.5 -40t-93.5 -48q-32 -12 -60 -9.5 t-53.5 14t-44.5 26.5t-30 27q-11 11 -15.5 58t-6.5 101t-2 100v61q0 26 -7 50.5t-1 35.5q4 11 17.5 19.5t21.5 10.5q18 2 30 -25q5 -12 -1 -29.5t-9 -23.5q0 -3 -1 -31.5t-1 -63.5t1 -68t1 -42q2 -24 5.5 -40t7.5 -30q2 -13 -0.5 -16t-3.5 -8q-2 -4 -0.5 -10.5t10.5 -14.5 q9 -9 17 -18t13 -6q6 1 6.5 -1.5t10.5 -9.5q4 -4 6 -8t10 -7t23 -2t47 6t48 23t22 41t6 49t1 47q2 21 1 62l-2 83t-0.5 76.5t3.5 41.5q8 14 20 22t19 7zM225 247q1 19 2.5 66.5t0 95.5t-2 87t-0.5 40q4 -45 7 -86q4 -35 4.5 -67.5t0.5 -46.5q-1 -15 -1 -40v-51q0 -30 -3 -62 q-3 6 -7 13q-7 16 -1 51zM507 501q4 -85 4 -158q0 -63 -3 -126t-11 -95q-18 -40 -50 -62t-63 -34q-37 -15 -80 -18q18 3 39 10q18 5 41 13t48 22q22 12 36 31t21.5 38t9.5 35t5 21q0 7 0.5 58t0.5 110q0 70 2 155zM81 625q-10 0 5 13.5t30 18.5q14 7 25.5 16.5t23.5 15.5 t29 20.5t27 26.5q9 12 24 9.5t23 -16.5q10 -15 -2.5 -22.5t-21.5 -9.5q-8 -3 -11.5 -6.5t-14.5 -7.5q-6 -4 -17.5 -10.5t-24.5 -15.5q-17 -9 -33 -21q-9 -6 -18 -9q-8 -3 -14.5 -5t-10.5 -2q-9 0 -10 2.5t-9 2.5zM515 664q13 -5 28 -18.5t4 -13.5q-6 0 -7 -2.5t-10 -2.5 q-3 0 -10.5 1.5t-15.5 5.5q-10 3 -19 8l-33 22l-25 15.5l-17 10.5q-8 4 -13 7.5t-13 7.5q-9 1 -20.5 8.5t-2.5 22.5q8 14 22.5 16.5t25.5 -9.5q8 -12 25 -26.5t29 -21.5q12 -5 24.5 -14.5t27.5 -16.5zM396 666q-2 0 0 5t-2 8l43 -26q10 -7 26 -13q7 -4 16 -8l14 -8l-52 22 l-20 11q-18 9 -25 9z" />
<glyph unicode="&#xdc;" horiz-adv-x="592" d="M451 558q7 -2 15.5 -23.5t6.5 -31.5q-5 -11 -8 -38t-7 -42q0 -8 -1 -41t-1 -72t1 -69.5t1 -32.5q1 -3 5 -22t1 -38q-1 -18 -29 -40t-93 -47q-32 -13 -60.5 -10.5t-53.5 14t-44 26.5t-30 27q-11 11 -16 58t-7 101t-2 100v61q0 29 -6.5 52t-1.5 34q6 11 18.5 19.5 t21.5 10.5q17 2 29 -25q6 -12 0 -29.5t-9 -23.5q0 -2 -1.5 -30.5t-1.5 -63.5t1.5 -68.5t1.5 -43.5q1 -23 4.5 -39.5t7.5 -29.5q3 -14 0 -16.5t-4 -8.5q-1 -4 0 -10t11 -14l16 -18t14 -6q5 1 6 -1.5t10 -9.5q4 -4 6 -8t10 -7t24 -2t47 6q32 5 48 23t22 41t6 48.5t1 47.5 q3 20 1.5 61.5l-3 83.5t-0.5 76.5t5 41.5q7 15 19 22.5t19 6.5zM212 247q1 19 2.5 66.5t0 95.5t-2 87t-0.5 40q4 -45 7 -86q4 -35 4.5 -67.5t0.5 -45.5q-1 -15 -1 -41v-52q0 -30 -3 -61q-2 6 -7 12q-6 17 -1 52zM494 501q4 -84 4 -158q0 -63 -2.5 -126.5t-10.5 -94.5 q-18 -40 -50 -62t-63 -34q-36 -15 -80 -18q18 3 39 10q18 5 41 13.5t48 21.5q23 12 36.5 31t21 38t9.5 34.5t5 21.5q0 7 0.5 57.5t0.5 111.5q0 70 1 154zM342 625q0 10 15 18l18 11q0 4 -3.5 5.5t-9 3.5t-9 4.5t-3.5 9.5q3 13 5 27t12 14q5 0 14.5 -4.5t20.5 -11t17.5 -18.5 t5.5 -30q-4 -35 -23 -44t-34 -5q-26 1 -26 20zM344 707q-6 -7 -3 -28t1 -31q-4 -2 -4 -5t-1 -7q-1 -2 -1 -5q-3 5 -3 12v15q0 3 -1.5 8.5t-1.5 13.5t7 17q3 6 7 10zM201 718q6 0 15.5 -4.5t20 -11t17.5 -18.5t6 -30q-4 -35 -23 -44t-34 -5q-26 1 -26 20q0 9 9 13q3 4 8 8 q2 7 -4 12t-4 19q0 3 1 5t1 6q-4 -12 -7 -23t-4 -17q-4 -2 -4 -5t-2 -7q-1 -2 -1 -5q-1 5 -1 12v15q0 3 -2 8.5t-2 13.5q0 17 12 24.5t17 9.5q5 4 7 4z" />
<glyph unicode="&#xdd;" horiz-adv-x="592" d="M287 331q1 0 9.5 8.5t18 21l18 24t11.5 18.5q4 5 13 20.5l19 34t21 36t16 27.5q11 17 22 24t16 1l17.5 -14.5t11.5 -20.5t-18 -30.5t-31 -35.5q-7 -10 -26 -33t-38.5 -51.5l-36 -53t-19.5 -34.5q-4 -11 -4 -32.5t1.5 -45.5t3 -45t1.5 -27q1 -7 5 -20.5t5 -26.5t-4.5 -24 t-23.5 -11t-24.5 11t-7.5 24t0.5 26.5t1.5 20.5v32t-0.5 54t-1.5 51t-1 25q-2 5 -20.5 28.5t-38.5 53.5q-11 14 -26.5 37l-31.5 46.5t-25.5 44t-6.5 28.5q3 17 20 19.5t29 -6.5q5 -6 10 -18t9.5 -27t9 -27.5t8.5 -17.5t13.5 -16l21 -24.5l21 -25t10.5 -17.5q4 -8 4 -13.5 t3 -13.5q3 -9 5.5 -8t9.5 3zM211 510q18 -27 34 -48q13 -19 22.5 -36.5t12.5 -21.5zM489 479q0 -5 -21.5 -37.5l-46.5 -68.5l-66 -96v-77q0 -33 -1 -63.5t-1 -47.5q0 -19 -5 -28.5t-11 -16.5q-7 -8 -13 -11l2 3l4.5 3t3.5 2q6 6 10 16q4 7 5 13q-1 53 -1 97q-1 38 -1 71v35 q0 4 22 35l50 70zM191 625q-10 0 5 13.5t28 19.5q15 7 26.5 16.5t24.5 14.5q12 7 28 21t27 26q10 13 25 10t23 -16q8 -15 -4 -22.5t-21 -10.5t-12.5 -6t-14.5 -7q-4 -5 -15.5 -11.5l-26.5 -14.5q-15 -10 -31 -22l-18 -8q-8 -4 -15.5 -6t-9.5 -2q-10 0 -10.5 2.5t-8.5 2.5z M344 673q-4 -3 -2 -8.5t-1 -5.5q-5 0 -23 -9l-22 -10l-50 -23l14 8l16 7q16 8 26 15z" />
<glyph unicode="&#xe0;" horiz-adv-x="580" d="M110 26q-11 3 -8.5 18t11 32.5t18 34.5t13.5 25q8 14 14 32.5t6 27.5q3 8 4.5 21.5t16.5 49.5q13 35 30 71t17 43q0 16 7 35q3 11 9 18t6 13q0 7 -4 16t-1 21q2 12 14 32t27 10q5 -4 9.5 -15.5t7 -25t4 -25t1.5 -15.5q2 -6 11 -26t19.5 -46l21 -51t16.5 -42 q5 -16 16 -44.5t24 -58t22.5 -53t11.5 -29.5q6 -14 17.5 -24.5t10.5 -23.5q-4 -15 -11 -21.5t-26 -4.5q-20 4 -26.5 19.5t-7.5 26.5q-4 11 -15 32.5t-16 25.5q-6 6 -16.5 -3t-23.5 -14q-12 -6 -27 -4t-48 2q-31 0 -43.5 -4.5t-24.5 -4.5t-17 8t-16 7q-8 0 -5 -9t0 -18 q-2 -9 -7 -26.5t-14 -32.5q-9 -12 -15 -6.5t-13 6.5zM359 234q-4 10 -17 37.5l-26.5 57.5l-25.5 55t-16 27q-6 2 -9 -4l-7 -14q-7 -9 -14.5 -16.5t-3.5 -7.5l9 -7t5 -8q0 -2 -6 -17.5l-13.5 -36.5t-16 -41.5t-9.5 -29.5q-3 -8 -9 -19t-12 -20.5t-9.5 -18t0.5 -9.5 q8 -3 16.5 -4t27.5 5q19 9 27.5 12t13.5 1q5 -3 13 -5t25 -2q8 0 20 -3t22.5 -5t17.5 -1t8 9q3 15 1 31t-12 34zM236 222q4 19 10 35q3 14 8 27t10 15l-3 -13q-3 -18 -4 -23q-4 -4 -7 -10.5l-6 -12.5zM251 204h7q7 0 13 3q4 3 9 -5.5t6 -14.5zM194 76q30 2 59 5q22 2 45 3.5 t36 -1.5zM187 68q4 -9 -1 -19.5t-12 -18.5q-7 -9 -21 -17l17 16q5 8 12 24q4 7 5 15zM483 125q-1 2 -7.5 19l-17 43.5l-23.5 59l-28 67.5l-72 182l81 -193l28.5 -69.5t24 -60t14 -39.5t0.5 -9zM332 633q14 -5 29 -18.5t4 -13.5q-7 0 -7.5 -2.5t-10.5 -2.5q-3 0 -10.5 2 t-15.5 5q-9 4 -19 9l-31 21l-24.5 15t-16.5 11q-9 4 -13.5 7.5t-12.5 5.5q-10 3 -21.5 10.5t-1.5 22.5q8 14 22 16.5t25 -9.5q8 -12 24.5 -26.5t28.5 -21.5q12 -5 24 -14.5t27 -16.5zM216 634q-1 0 0 5.5t-1 8.5l42 -25q8 -7 24 -15q6 -3 16 -7l13 -8l-49 23l-21 10 q-17 8 -24 8z" />
<glyph unicode="&#xe1;" horiz-adv-x="569" d="M106 27q-11 2 -8 17t11 32.5t17.5 35t12.5 24.5q9 14 15 32t6 28q2 8 4 21.5t15 49.5l31.5 71t16.5 43q0 15 7 35q4 10 10 17.5t6 14.5q0 6 -4.5 15t-0.5 21q1 13 14 32.5t27 9.5q5 -5 9 -16.5t7 -24.5t5 -24.5t2 -17.5q1 -5 10 -24.5l20 -45.5l21 -51t16 -42 q5 -16 16.5 -44.5l24 -58l22 -53t13.5 -29.5q5 -13 16 -24t10 -25q-3 -13 -10.5 -19t-26.5 -5q-19 3 -25 19t-9 26q-3 11 -14.5 33.5t-16.5 24.5q-6 6 -16 -3t-22 -14q-13 -6 -28 -4t-49 2q-33 0 -45 -4.5t-24 -4.5q-13 0 -17 8t-15 7q-9 0 -6.5 -9t1.5 -18t-6.5 -26.5 t-13.5 -31.5q-10 -12 -16 -7t-13 7zM357 234q-6 10 -18 37.5t-26.5 57.5l-26.5 54.5t-16 27.5q-7 3 -10 -3.5t-6 -14.5l-15 -16.5t-2 -7.5q2 -3 7.5 -7t5.5 -8q0 -2 -6 -17.5l-14 -36.5l-15.5 -41.5t-10.5 -29.5q-1 -9 -7.5 -19l-12.5 -20t-9.5 -17.5t-0.5 -10.5 q10 -3 17 -4t28 7q19 7 28 10t13 2q5 -4 12.5 -5.5t25.5 -1.5q10 0 20.5 -2.5t21.5 -5.5t18 -2t9 10q2 14 0 30t-10 34zM232 222l9 35t9.5 27.5t9.5 14.5l-4 -13q-2 -18 -4 -23q-3 -4 -6 -10.5t-7 -12.5zM246 204h8q7 0 13 3q5 3 9 -4.5t6 -16.5zM190 76q30 2 59 6 q23 1 45.5 3t34.5 -2zM184 70q2 -11 -2.5 -20.5t-12.5 -19.5q-7 -8 -19 -18l16 17q5 8 12 24q3 7 6 17zM479 125q-1 2 -7.5 19l-16.5 43.5t-23.5 59l-27.5 67.5l-72 183q48 -109 80 -194l28.5 -69l24 -60t14.5 -40t0 -9zM177 626q-10 0 5 13t29 18q15 7 26.5 17.5t22.5 14.5 q12 8 28.5 21.5t27.5 25.5q9 12 24 10t23 -17q9 -13 -3.5 -21.5t-20.5 -9.5q-10 -4 -13 -7.5t-14 -5.5q-4 -5 -16 -11.5t-26 -16.5q-14 -8 -31 -20q-11 -6 -17 -10q-9 -2 -16.5 -4t-9.5 -2q-10 0 -11 2.5t-8 2.5zM328 674q-3 -4 -1.5 -9.5t0.5 -5.5q-7 0 -25 -8l-22 -11 l-49 -23l14 9q9 3 15 7q15 7 26 13z" />
<glyph unicode="&#xe2;" horiz-adv-x="584" d="M115 26q-11 3 -8.5 18t11 32.5t18 34.5t13.5 25q8 14 14 32.5t6 27.5q3 8 4 21.5t16 49.5q14 35 31 71t17 43q0 16 7 35q2 11 8.5 17.5t6.5 13.5t-4.5 16t-1.5 21t15.5 31.5t27.5 10.5q5 -4 9 -15.5t7 -25t4 -25.5t1 -16q3 -5 12 -25.5t19 -46t21 -51t16 -41.5 l16.5 -44.5t23.5 -57.5t22.5 -53t12.5 -29q5 -15 16.5 -25.5t10.5 -23.5q-4 -15 -11 -21t-26 -5q-20 4 -26 19.5t-8 26.5q-4 11 -14.5 32.5t-16.5 26.5q-5 5 -16 -4t-23 -14q-12 -6 -27 -3.5t-48 2.5t-45 -5t-24 -5q-13 0 -17.5 8t-15.5 7q-8 0 -5.5 -9t0.5 -18 q-2 -8 -7.5 -26t-13.5 -33q-9 -12 -15.5 -6.5t-12.5 6.5zM365 234q-4 10 -17 37.5l-26.5 57.5t-26 55t-16.5 26q-6 3 -8.5 -3t-7.5 -14q-7 -10 -14.5 -17.5t-3.5 -7.5q4 -2 9 -6t5 -9q0 -1 -6.5 -16.5t-14 -36.5l-15.5 -41.5t-9 -29.5q-3 -8 -9 -19t-12 -20.5t-9.5 -17.5 t0.5 -10q8 -3 16 -4t27 6q19 8 28 11t14 1q6 -3 13.5 -5t25.5 -2q8 0 19.5 -2.5l22.5 -5t17.5 -1.5t8.5 9q2 15 0 31t-11 34zM241 222q4 19 9 35q3 14 8.5 26.5t10.5 15.5l-2 -13q-4 -18 -6 -23q-4 -4 -6.5 -10.5t-5.5 -12.5zM256 204h7q8 0 13 3t9.5 -5.5t5.5 -14.5z M199 77q30 1 58 4q24 2 47 3.5t35 -1.5zM192 69q4 -10 -1.5 -20t-12.5 -18q-6 -10 -20 -18l16 16q6 8 13 25q4 6 5 15zM488 126q-1 1 -7 18t-17 43.5l-24 59l-28 67.5l-72 182l82 -193q13 -35 27.5 -69.5t24 -59.5t14 -39.5t0.5 -8.5zM268 682l-19.5 -16t-27.5 -24.5 t-23.5 -18.5t-6.5 1q1 4 -2.5 2.5t-8 -4.5t-8.5 -3.5t-4 5.5q0 11 -1 11t7 8q10 9 20 16.5t22 22.5l30 31t17 22q0 7 2.5 11t17.5 8q15 2 24.5 4.5t13.5 -9.5q2 -8 11 -18l6 -5q8 -7 15 -14q8 -5 12.5 -10.5t8.5 -5.5q4 -2 11 -7t14 -11l17 -13q6 -6 11 -13q11 -12 3 -19 q-8 -8 -16.5 -15t-17.5 6q-10 11 -10 16.5t-6 10.5q-6 7 -12.5 11t-16.5 9q-11 7 -24.5 14.5t-22.5 10.5q-3 3 -8 4t-9 1h-8q0 -2 -1 -7q-3 -9 -10 -12zM348 746q17 -15 34 -27q15 -11 28 -22.5t17 -19.5z" />
<glyph unicode="&#xe3;" horiz-adv-x="585" d="M118 26q-11 3 -8.5 18t11 32.5t18 34.5t13.5 25q8 15 13.5 33t6.5 27q3 8 4.5 21.5t13.5 49.5q15 35 32.5 71t17.5 43q0 16 7 35q3 11 9 18.5t6 14.5q0 5 -4 15.5t-3 19.5q2 6 6.5 15.5t10 17.5t12 11.5t11.5 -2.5q8 -4 11.5 -15.5t6.5 -25t4 -25t3 -15.5q2 -6 11 -26 t19.5 -46l21 -51t16.5 -42q5 -16 16 -44l22.5 -57l21.5 -53l13 -31q6 -12 18 -23.5t9 -24.5q-2 -15 -9 -21.5t-26 -4.5q-20 4 -26.5 19.5t-8.5 26.5q0 5 -5 14.5t-9 18.5t-9.5 17t-6.5 10q-6 4 -17.5 -5t-23.5 -14q-12 -6 -26.5 -3t-47.5 3q-31 0 -43.5 -5.5t-24.5 -5.5 t-17.5 9t-15.5 7q-8 -1 -5 -9.5t0 -17.5q-2 -8 -7 -26.5t-14 -30.5q-9 -15 -15 -9.5t-13 6.5zM367 237q-4 7 -17 34.5l-26.5 59t-25.5 56t-16 25.5q-9 4 -10.5 -2t-6.5 -17q-8 -9 -15 -16t-2 -8l9 -6.5t5 -6.5q0 -2 -6 -18.5l-13.5 -37.5t-16 -41.5t-9.5 -29.5q-3 -8 -9 -19 t-12 -20.5t-9.5 -16.5t0.5 -10q8 -2 15 -3t27 3q19 9 28 12t13 1q10 -4 40 -4q7 0 18.5 -3l22 -5.5t18.5 -2t8 7.5q7 34 -10 68zM244 222q4 19 10 35q3 14 8 27t10 15l-3 -13q-3 -15 -7 -22q-1 -3 -4 -10.5t-6 -13.5zM259 207h7q6 0 11 1q6 2 11 -6.5t6 -14.5zM202 78 q30 3 59 5q22 2 44.5 2.5t34.5 -2.5zM195 68q2 -17 -13 -36q-7 -9 -21 -19q0 1 4 5q2 3 4.5 5t6.5 6q6 8 13 24q4 7 6 15zM491 125q-1 2 -7.5 19l-17 43.5l-23.5 59l-28 67.5l-72 182l81 -193l28.5 -69.5l24 -59t14 -39t0.5 -10.5zM146 663q2 3 4.5 6t6.5 7q3 5 7 6 q0 -1 3 -1q8 0 15 6q5 6 15.5 13.5t25.5 15.5t29.5 13.5t26.5 5.5q24 -4 39 -28.5t33 -34.5q16 -6 23 2t14 4q7 -3 9 -15t10 -4t8 17v7l11 15q4 4 8 9t8 1q4 -3 5.5 -14.5t-1.5 -17.5q-3 -4 -12.5 -11.5t-21.5 -15.5t-26.5 -14t-26.5 -5q-12 3 -24.5 10.5t-23 17t-18 17.5 t-10.5 12q-4 3 -16 3t-23 -5q-8 -3 -14.5 -10.5t-11.5 -10.5q-4 -4 -4.5 -10.5t-5.5 -17.5q-7 -8 -15 -8t-18 2q-11 4 -22.5 9.5t-6.5 23.5zM462 705q21 7 10 -38q-4 -10 -14 -18t-22 -13.5t-20.5 -6.5t-4.5 0q7 1 13.5 6.5t16.5 9.5q8 3 13.5 5.5t7.5 12.5q5 9 5 22v15z M232 657l8 3q4 4 17 6q12 0 15 -2q4 -1 5 -4z" />
<glyph unicode="&#xe4;" horiz-adv-x="591" d="M121 26q-11 3 -8 18t11 32.5t17.5 34.5t13.5 25q8 14 14 32t6 28q3 8 4.5 21.5t16.5 49.5q13 35 30 71t17 43q0 16 7 35q3 11 9 18t6 13q0 7 -4 16t-1 21q2 12 14 32t27 10q6 -4 10 -15.5t6.5 -25t4 -25t1.5 -15.5q3 -6 11.5 -26.5l19 -46l21 -50.5t16.5 -42 q5 -16 16 -44.5t24 -58t22.5 -53t12.5 -29.5q5 -15 16.5 -25t10.5 -24q-4 -15 -11 -21t-26 -4q-20 4 -26.5 19.5t-7.5 26.5q-4 11 -15 32.5t-16 25.5q-6 6 -16.5 -3t-23.5 -14q-12 -6 -27 -4t-48 2q-31 0 -43.5 -4.5t-24.5 -4.5t-17 8t-16 7q-8 0 -5 -9t0 -19 q-1 -8 -6.5 -25.5t-14.5 -32.5q-9 -12 -15 -6.5t-13 6.5zM370 234q-4 10 -17 37.5l-26.5 57.5l-25.5 55t-16 27q-6 2 -8.5 -4t-7.5 -14q-7 -9 -14.5 -16.5t-3.5 -7.5q5 -3 9.5 -7t4.5 -8q0 -2 -6 -17.5l-13.5 -36.5l-15.5 -41.5t-10 -29.5q-3 -9 -9 -19.5l-12 -20t-9.5 -18 t0.5 -9.5q8 -3 16.5 -4t27.5 5l27.5 11.5t13.5 1.5q5 -3 13 -5t25 -2q8 0 20 -3t22.5 -5t17.5 -1t8 9q3 15 1 31t-12 34zM247 222q4 19 10 35q3 14 8 27t10 15l-3 -13q-3 -18 -4 -23q-4 -5 -7 -11t-5 -13zM262 204h7q7 0 13 3q4 3 9 -5.5t6 -15.5zM205 76l59 4q22 3 45 4.5 t36 -1.5zM198 68q5 -9 -0.5 -19.5t-12.5 -18.5q-7 -9 -21 -18l17 17q5 8 12 24q4 7 5 15zM494 125q-1 2 -7.5 19l-17 43.5l-23.5 59l-28 67.5l-72 182q48 -108 81 -193l28.5 -69.5t24 -60t14 -39.5t0.5 -9zM192 717q5 0 14.5 -3.5t20.5 -11t17.5 -19.5t5.5 -30 q-4 -34 -23 -43t-34 -5q-26 2 -26 21q0 7 8 11q4 4 10 8q1 7 -5 12.5t-5 18.5q0 5 1.5 6t1.5 5q-4 -12 -6.5 -23t-4.5 -16q-4 -3 -4 -5.5t-1 -6.5q-2 -3 -2 -6q-2 6 -2 12v15q0 3 -1.5 8.5t-1.5 15.5q0 17 12 24t18 8q3 4 7 4zM331 626q0 8 15 16l18 11q0 4 -3.5 5.5t-9 3.5 t-9 5t-3.5 9q1 14 4 27.5t12 13.5q6 0 15.5 -3.5t20.5 -11t17.5 -19.5t5.5 -30q-4 -34 -24 -43t-33 -5q-26 2 -26 21zM332 706q-5 -6 -2.5 -27.5t1.5 -30.5q-4 -3 -4 -5.5t-1 -6.5q-3 -3 -3 -6q-2 6 -2 12v15q0 3 -1 8.5t-1 15.5q0 6 7 17q2 4 6 8z" />
<glyph unicode="&#xe6;" horiz-adv-x="868" d="M766 35q-1 -6 -6.5 -11.5t-12 -10.5t-13 -8t-9.5 -3q-5 0 -16.5 2t-24.5 4.5t-25 4.5t-18 2h-18.5h-34.5t-43.5 0.5t-44 0.5t-35 0.5t-18.5 0.5q-10 2 -17.5 15.5t-7.5 18.5q0 3 -2.5 26.5t-4.5 49.5q-11 -3 -21.5 -5t-16.5 -3q-7 -3 -13.5 -4t-15.5 -0.5t-21 1t-30 0.5 q-17 1 -28.5 0.5t-20.5 -2t-15.5 -3t-13.5 -1.5q-5 0 -8 2.5t-5.5 5t-5.5 4.5t-8 1q-11 0 -11 -8t-4 -16q-2 -8 -11.5 -24t-23.5 -26q5 3 10.5 9t10.5 12l13 15q-2 -9 -11 -18.5t-19 -17.5q-12 -9 -26 -17q1 1 3 2t8 5q-9 -5 -16.5 -5t-13 2t-9.5 5t-7 3q-10 2 -3.5 16 t20 31t29 32.5l21.5 21.5q13 16 24.5 32t13.5 24q2 3 4 7.5t6 11.5l11 18.5t19 28.5t26.5 34.5l26.5 32.5l20.5 25.5t8.5 13.5q3 8 6.5 15.5t11.5 18.5q8 9 16 15.5t11 14.5q1 5 -0.5 13.5t3.5 19.5q3 6 14 14.5t24.5 16t26 10.5t18.5 -2l-2 -1q11 3 32.5 3t44 -0.5t42 -1.5 t25.5 -1q7 0 20.5 0.5t27.5 2t25.5 3.5t16.5 5q9 5 23 8t22 -2q7 -4 16 -20t8 -27t-8.5 -21.5t-24.5 -12.5q-15 -1 -33.5 1.5t-32.5 2.5q-3 0 -13 -0.5t-23.5 -1t-29.5 -1t-32 -1.5q-38 -2 -84 -3q-2 -5 -2.5 -26.5t-0.5 -46.5v-65q11 1 21 2q8 1 16.5 1.5t13.5 0.5 q4 0 15 -0.5t23 -1.5l23 -2t16 0q6 0 13 3t15 5.5t15 4t13 -0.5q10 -2 22 -8t10 -26q0 -19 -5 -29.5t-25 -15.5q-10 -2 -15.5 -2t-9 1t-7 3t-8.5 4q-5 1 -20 1h-31.5t-31 -0.5t-18.5 -0.5q-7 -4 -18 -2t-19 -1q-3 -1 -5 -15.5t-3 -32t-0.5 -33t2.5 -18.5q2 -7 3.5 -16.5 t1.5 -13.5q0 -2 -1.5 -7l-3 -10.5t-1.5 -10.5t3 -6q4 -1 10.5 -0.5t13.5 1.5l14 2t11 1t24.5 -2l45 -4.5t46 -4t29.5 -0.5t20.5 5.5l25.5 9t24.5 7t18.5 0.5q6 -2 9.5 -9t6 -15.5t3 -17t0.5 -14.5zM412 375q0 7 0.5 17t2.5 22q-12 -5 -26.5 -14.5t-19.5 -14.5 q-10 -9 -20 -16t-7 -8q4 0 9 -4t5 -8q-1 -2 -13 -17l-26.5 -34.5l-28 -38.5t-17.5 -27q-5 -8 -14.5 -18.5t-18.5 -19.5t-14.5 -15.5t-1.5 -7.5q6 -3 14 -4.5t30 5.5q21 5 32 8.5t17 -0.5q5 -1 13 -3t28 -2q9 0 24.5 -2.5t30.5 -5.5q-1 10 -1 17.5v12.5q0 9 1.5 19l3 19.5 t3.5 17t3 10.5q1 5 0 19t-2.5 31t-3.5 34t-3 28zM513 356q3 -8 14 -11.5t23 -4t20.5 -0.5t5.5 -1q-2 -1 -17.5 -1.5t-33.5 -1.5q-21 -1 -47 -2q1 5 3 9q4 10 4 18q-2 3 -1.5 12.5t0.5 20.5q0 12 1 28h95q-18 -2 -32 -5q-13 -2 -24 -4.5t-13 -4.5q-5 -4 -4.5 -20t6.5 -32z M513 208q5 1 14 3t18 3.5t17.5 2t13.5 -2.5q2 0 -5 -1t-17.5 -1.5t-22 -1.5t-18.5 -2q-3 -2 -5 -2t0 0q1 2 5 2zM498 144q2 -8 3 -15t1 -9l-12 -1q-2 25 -3 46q-1 18 -1.5 34t-0.5 21l6 -21q2 -10 4 -24t3 -31zM502 120l9 2q-1 -2 -3 -4t-3.5 -2t-2.5 4zM356 96l-151 -4 q33 3 63 5q26 2 51 2t37 -3zM353 297l-9 -13q-4 -5 -7.5 -11t-6.5 -10q-3 -3 -9 -9.5t-11 -12.5q-6 -8 -13 -16q10 18 21 33q9 13 18 24.5t17 14.5zM339 191l-34 18h8h7t8 1q8 2 10.5 -4.5t0.5 -14.5z" />
<glyph unicode="&#xe8;" horiz-adv-x="597" d="M360 447q-8 0 -36.5 -1t-60.5 -2q-38 -3 -84 -4q-2 -3 -3 -25t-1 -46v-66q13 2 21 2h17.5t12.5 1h17t21.5 -1.5t22 -1.5h16.5q11 2 28 8.5t26 4.5q11 -4 23.5 -10.5t10.5 -23.5q0 -19 -5 -31t-24 -14q-20 -4 -25 -2t-16 4q-6 2 -20.5 3.5t-30.5 1.5t-30.5 -1.5 t-18.5 -3.5q-8 -1 -19 0.5t-18 -0.5q-4 -1 -5.5 -15l-3.5 -32t-1 -33t3 -18q3 -8 4.5 -17.5t1.5 -13.5q0 -3 -5 -16.5t2 -16.5q8 -4 24 -0.5t24 3.5q5 0 25.5 -1.5t44 -4t46 -4.5t30.5 -1q7 0 19 5t25.5 9t24.5 6.5t18 1.5q13 -6 17 -25t2 -32q-1 -10 -17.5 -21t-24.5 -11 q-4 0 -14.5 2t-24 5t-25.5 4.5t-18 1.5h-34t-62.5 1t-62.5 2t-35 1q-9 1 -17 14.5t-8 17.5q0 3 -2 23.5l-4.5 44.5t-4 47t-1.5 31q0 17 4 38t6 29q2 4 1 18.5t-3 30.5t-3.5 34t-1.5 29q0 10 1 30.5t3.5 41.5t6.5 37t11 20q8 6 30 6.5t46 0t45.5 -2t28.5 -1.5t20 1.5t27.5 2 t26 2.5t16.5 5q8 5 22.5 8t21.5 -1q8 -3 17 -20t6 -28q-1 -9 -8 -21t-22 -12q-16 -1 -34.5 0.5t-32.5 1.5zM295 423q-17 -1 -32 -5q-12 -4 -22 -5.5t-15 -2.5q-5 -4 -4.5 -21t6.5 -32q3 -10 14.5 -12.5t23.5 -4t19.5 -1t6.5 0.5q-4 -1 -18 -1t-34 -3q-20 -1 -48 -3l4 11 q5 10 5 18q-3 3 -1.5 12.5t1.5 20.5v28h94zM360 335q3 -3 8.5 -7l9.5 -7l-29 19zM222 207q-1 0 7 1.5l20.5 4t24.5 4.5t18 -2q1 0 -8.5 -0.5t-22.5 -2.5t-24.5 -3t-14.5 -2zM201 219q2 -9 6 -20q3 -9 4.5 -23t2.5 -32q2 -29 7 -29q1 0 5 6l-20 -2q-3 24 -4 44q-1 18 -1 35 v21zM362 634q13 -6 28 -19t6 -13t-9.5 -3t-8.5 -3q-4 0 -11 2.5t-16 4.5q-9 4 -19 10l-32 21l-25.5 14.5t-16.5 10.5l-13 8t-13 6q-10 3 -20.5 10.5t-2.5 22.5q9 13 22.5 16t24.5 -9q10 -13 26 -27t28 -21q12 -6 25 -15.5t27 -15.5zM244 635q-1 0 0 5.5t-1 8.5l42 -25 q10 -7 25 -15q8 -3 16 -7l14 -8l-50 23l-21 9q-18 9 -25 9z" />
<glyph unicode="&#xe9;" horiz-adv-x="596" d="M359 448q-6 0 -35.5 -1t-59.5 -4q-40 -1 -84 -2q-3 -4 -3.5 -26t-0.5 -46v-66q12 2 21 2h16.5t13.5 1h16t21.5 -1.5t22.5 -1.5h17q9 2 26 8.5t28 4.5q10 -4 22.5 -10.5t10.5 -23.5q0 -19 -5 -30.5t-25 -14.5q-19 -4 -24.5 -2t-15.5 5q-5 2 -20 3t-31.5 1t-31 -1t-16.5 -3 q-10 -2 -20 0t-17 0q-4 -2 -6 -16t-3.5 -32t-0.5 -33t2 -17q4 -10 4.5 -19.5t0.5 -12.5q0 -4 -4 -17t3 -17t23 0t25 4q5 0 25.5 -2t43.5 -4.5t45 -4.5t30 1q8 0 20.5 4l25.5 8.5t24.5 7.5t17.5 0q13 -5 17.5 -24.5t1.5 -31.5q-1 -11 -16.5 -21t-25.5 -10q-5 0 -15.5 1.5 t-24 4t-25.5 4.5t-18 2h-33t-62 1t-62 1.5t-35 0.5q-11 3 -18.5 15.5t-7.5 18.5q0 1 -2 21.5l-4.5 45t-4 47.5t-1.5 31q0 17 4 38t6 29q2 4 1 18.5t-2.5 30.5t-3.5 34t-2 28q0 11 1.5 31t3.5 41t6.5 38t11.5 21t29.5 5.5t46 0t45 -2t28.5 -0.5q6 0 20 0.5t27.5 2t25 3 t16.5 5.5q9 5 23 8t21 -2q9 -2 18 -19t6 -28q-1 -11 -8 -22t-23 -11q-15 -3 -34 -0.5t-33 2.5zM294 423q-16 -3 -30 -5q-12 -4 -23 -5.5t-14 -4.5q-5 -3 -4.5 -20t6.5 -32q1 -9 12.5 -11.5t24 -4t20 -1t5.5 0.5q-4 -1 -17.5 -1t-32.5 -3q-21 -1 -48 -3l4 11q3 10 3 18 q-1 3 -0.5 12.5t0.5 20.5v28h94zM359 335q5 -3 9.5 -7t8.5 -7l-28 19zM223 207q-1 0 6.5 1.5l20.5 4t24.5 4.5t16.5 -2q2 0 -7 -0.5t-22.5 -2.5t-25.5 -3t-13 -2zM200 219q4 -9 7 -19q4 -9 4.5 -23.5t3.5 -32.5q1 -30 7 -30q1 0 5 6l-22 -1l-2 46q-3 17 -3 33.5v20.5z M210 626q-10 0 5 13t30 18q13 7 25 17.5t23 14.5q12 8 28.5 21.5t27.5 25.5q9 12 24 10t23 -17q10 -13 -2.5 -21.5t-21.5 -9.5q-8 -4 -12.5 -7.5t-13.5 -5.5q-6 -5 -17.5 -11.5t-24.5 -16.5q-17 -8 -32 -20q-9 -6 -18 -10q-8 -2 -14.5 -4t-10.5 -2q-9 0 -11 2.5t-8 2.5z M361 674q-3 -4 -1.5 -9.5t-0.5 -5.5q-6 0 -24 -8l-22 -11l-49 -23l14 9q8 3 15 7q15 7 26 13z" />
<glyph unicode="&#xea;" d="M360 447q-8 0 -36.5 -0.5t-60.5 -2.5q-38 -2 -84 -4q-1 -4 -2.5 -25.5t-1.5 -46.5v-65q14 2 22 2h16.5t13.5 1h16t22 -1.5t22 -1.5h16q11 2 28 8.5t26 4.5l23.5 -11t10.5 -23q0 -19 -5.5 -30.5t-24.5 -14.5q-19 -4 -24.5 -2t-15.5 5q-6 1 -21 2.5t-30.5 1.5t-30 -1.5 t-18.5 -2.5q-8 -2 -19 -0.5t-17 0.5q-4 -2 -5.5 -16l-3.5 -32t-1.5 -32.5t3.5 -17.5q3 -10 4 -19.5t1 -13.5q0 -2 -4.5 -16t2.5 -16q8 -4 23.5 -1t23.5 3q5 0 25.5 -1t44 -4t45.5 -5t31 0q6 0 18.5 4.5t26 8.5t25 7t18.5 1q12 -5 16 -24t3 -33q-2 -9 -18 -20t-24 -11 q-6 0 -16 2t-23.5 5t-26 4t-17.5 1h-35t-61.5 1.5t-62 2t-34.5 0.5q-10 2 -18 15.5t-8 17.5q0 3 -2 23l-4.5 44.5t-4 47.5t-1.5 32q0 16 4 37t7 29q1 4 0.5 18.5t-2.5 30.5l-4 33.5t-2 28.5t1 31.5t4 41.5t7 37t11 21q8 5 29.5 5.5t45.5 0t45 -2t29 -1.5q7 0 20 1.5t27 2 t25.5 2.5t17.5 5q8 6 22 8.5t21 -1.5q10 -3 18.5 -20t6.5 -28q-2 -9 -8.5 -20.5t-23.5 -11.5q-16 -2 -34 -0.5t-32 1.5zM295 423q-17 -2 -32 -6q-12 -4 -22 -5t-14 -3q-6 -4 -5 -21t6 -32q3 -9 14.5 -12t23.5 -4t19 -0.5t6 0.5q-4 -1 -17 -1t-34 -3q-20 -1 -47 -3l4 11 q4 10 4 18q-3 2 -1.5 11.5t1.5 20.5v29h94zM360 335q3 -3 8.5 -7l9.5 -7l-29 19zM223 207q-2 0 6.5 1.5t20.5 4t23.5 4.5t17.5 -2q1 0 -8 -0.5t-22 -2.5t-24.5 -3t-13.5 -2zM201 219q3 -9 7 -20q2 -8 3.5 -22.5t2.5 -31.5q2 -30 7 -30q2 0 6 5l-21 -1q-2 24 -4 45 q-1 17 -1 34v21zM266 682l-19.5 -16t-27.5 -24.5t-23.5 -19t-6.5 0.5q1 5 -2.5 3t-8 -5t-8.5 -3.5t-4 5.5q0 12 -1.5 12t7.5 8q9 9 19.5 16.5t22.5 22.5l30 31t17 22q0 7 2.5 11t17.5 8q15 2 24.5 4.5t13.5 -9.5q2 -8 11 -18l4 -5q10 -7 16 -14q7 -5 12.5 -10.5t9.5 -5.5 l10.5 -7t14.5 -11l17 -13q6 -6 11 -13q10 -12 3 -19q-8 -9 -16.5 -16t-18.5 6q-9 12 -9 17.5t-6 10.5q-6 7 -13.5 11t-15.5 9q-11 7 -25 14.5t-22 10.5q-4 3 -8.5 4t-8.5 1h-7q0 -2 -2 -7q-3 -9 -10 -12zM345 746q18 -15 35 -27q15 -11 28 -22.5t17 -19.5z" />
<glyph unicode="&#xeb;" horiz-adv-x="593" d="M359 448q-6 0 -35.5 -1t-59.5 -4q-40 -1 -84 -2q-3 -4 -3.5 -26t-0.5 -46v-66q12 2 21 2h16.5t13.5 1h16t21.5 -1.5t22.5 -1.5h17q9 2 26 8.5t28 4.5q10 -4 22.5 -10.5t10.5 -23.5q0 -19 -5 -30.5t-25 -14.5q-19 -4 -24.5 -2t-15.5 5q-5 2 -20 3t-31.5 1t-31 -1t-16.5 -3 q-10 -2 -20 0t-17 0q-4 -2 -6 -16t-3.5 -32t-0.5 -33t2 -17q4 -10 4.5 -19.5t0.5 -12.5q0 -4 -4 -17t3 -17t23 0t25 4q5 0 25.5 -2t43.5 -4.5t45 -4.5t30 1q8 0 20.5 4l25.5 8.5t24.5 7.5t17.5 0q13 -5 17.5 -24.5t1.5 -31.5q-1 -11 -16.5 -21t-25.5 -10q-5 0 -15.5 1.5 t-24 4t-25.5 4.5t-18 2h-33t-62 1t-62 1.5t-35 0.5q-11 3 -18.5 15.5t-7.5 18.5q0 1 -2 21.5l-4.5 45t-4 47.5t-1.5 31q0 17 4 38t6 29q2 4 1 18.5t-2.5 30.5t-3.5 34t-2 28q0 11 1.5 31t3.5 41t6.5 38t11.5 21t29.5 5.5t46 0t45 -2t28.5 -0.5q6 0 20 0.5t27.5 2t25 3 t16.5 5.5q9 5 23 8t21 -2q9 -2 18 -19t6 -28q-1 -11 -8 -22t-23 -11q-15 -3 -34 -0.5t-33 2.5zM294 423q-16 -3 -30 -5q-12 -4 -23 -5.5t-14 -4.5q-5 -3 -4.5 -20t6.5 -32q1 -9 12.5 -11.5t24 -4t20 -1t5.5 0.5q-4 -1 -17.5 -1t-32.5 -3q-21 -1 -48 -3l4 11q3 10 3 18 q-1 3 -0.5 12.5t0.5 20.5v28h94zM359 335q5 -3 9.5 -7t8.5 -7l-28 19zM223 207q-1 0 6.5 1.5l20.5 4t24.5 4.5t16.5 -2q2 0 -7 -0.5t-22.5 -2.5t-25.5 -3t-13 -2zM200 219q4 -9 7 -19q4 -9 4.5 -23.5t3.5 -32.5q1 -30 7 -30q1 0 5 6l-22 -1l-2 46q-3 17 -3 33.5v20.5z M334 626q0 8 15 18l17 11q0 2 -3.5 4t-8.5 3.5t-8.5 4.5t-3.5 9q1 15 4 28t12 13q6 0 15.5 -3.5t19.5 -10t17.5 -19.5t4.5 -29q-3 -36 -22.5 -44.5t-33.5 -6.5q-25 3 -25 22zM335 706q-5 -7 -2.5 -28t1.5 -29q-4 -4 -4 -6.5t-2 -5.5q-3 -4 -3 -6q-1 6 -1 13v13q0 4 -1.5 9 t-1.5 14q0 7 7 18q3 6 7 8zM195 717q5 0 15 -3.5t20.5 -10t17 -19.5t5.5 -29q-3 -36 -22.5 -44.5t-33.5 -6.5q-27 3 -27 22q0 7 10 12q2 3 8 7q2 7 -4.5 12.5t-3.5 18.5q0 4 0.5 6.5t0.5 4.5q-4 -12 -6 -22t-5 -16q-3 -4 -3 -6.5t-2 -5.5q-2 -4 -2 -6q-1 6 -1 13v13 q0 4 -2 9t-2 14q0 18 12 25t18 9q4 3 7 3z" />
<glyph unicode="&#xec;" horiz-adv-x="596" d="M385 525q5 0 11 -1.5t12 -4.5q4 -3 4.5 -11.5t0.5 -18.5q0 -11 -1 -24q1 4 1 11q0 5 -0.5 12t-2.5 16q-2 8 -8 11.5t-13 3.5t-14 -1.5t-9 -1.5q-3 -4 1.5 -7t10.5 -5q7 -4 14.5 -10.5t8.5 -17.5q4 -10 -4 -19.5t-16 -17.5q-10 -8 -27 -4t-21 5q-15 7 -26 -1q-6 -4 -6 -11 v-19v-259v-19t1 -25.5t2 -23t3 -9.5q6 -2 16.5 7t17.5 9t15 -7.5t15 -4.5q6 0 12 -1.5t13 -6.5q6 -7 4 -22.5t-11 -26.5q-8 -12 -26 -13t-33 2q-13 4 -31 4h-35q-18 0 -46.5 -2.5t-33.5 2.5q-3 1 0.5 9.5t8.5 17t12 15.5t11 7q7 0 13 -3t17 1q11 2 15 13.5t5 23.5 q0 6 -0.5 44.5t-1 85t-2 89t-1.5 55.5q0 53 -18 75q-2 3 -14 3t-23.5 1t-20 5t-7.5 19q3 13 10.5 19t16 6.5t19.5 -1.5t18 -2q15 0 30 -0.5t39 3.5q26 2 33 11t14 13q5 3 11 9.5t16 2.5q20 -5 0 -12q-7 -4 -8 -1l-5 3h13zM241 541q6 3 30.5 2l49.5 -2q30 -2 64 -6zM340 264 q1 -49 2 -90.5t3 -47.5q2 -11 3 -13q0 -1 3 0l-10 -1l-5 280zM352 104q3 12 16.5 10t31.5 -11q17 -9 16.5 -30.5t-0.5 -24.5q1 -4 0.5 5t-0.5 16q0 5 -9 15t-13 13q-1 0 -8.5 0.5t-15 0.5t-13 1.5t-5.5 4.5zM359 633q13 -7 28 -19t7 -12q-9 0 -10 -3t-9 -3q-9 0 -27 7 q-8 4 -18 10q-15 12 -31 20q-12 9 -25 15.5t-16 10.5q-11 4 -14 7.5t-13 4.5q-8 4 -20.5 11t-3.5 21q9 15 24 18t23 -9q11 -12 27.5 -27t28.5 -20q12 -7 23.5 -17.5t25.5 -14.5zM243 633q-2 0 0.5 5t-2.5 9l42 -26q10 -7 24 -14q8 -4 17 -7l13 -9l-49 23l-22 11q-2 1 -7 2.5 t-8 3.5q-5 2 -8 2z" />
<glyph unicode="&#xed;" horiz-adv-x="591" d="M386 525q5 0 11.5 -2t11.5 -4q3 -4 4 -12.5t1 -17.5q0 -10 -2 -24q2 3 2 11q0 4 -1 11.5t-3 15.5q-1 9 -7 12.5t-13.5 3.5t-14.5 -2t-8 -2q-4 -3 1.5 -6t10.5 -6q7 -3 13.5 -10.5t8.5 -16.5q4 -10 -4 -19.5t-17 -18.5q-9 -7 -25.5 -3.5t-21.5 5.5q-14 7 -24 -2 q-7 -3 -7 -10.5v-19.5v-258v-19t0.5 -25t1 -23t5.5 -10q5 -2 15 7t17 9q8 0 15.5 -7t14.5 -5q5 0 11.5 -1t14.5 -6q7 -7 4 -23.5t-12 -25.5q-9 -14 -26.5 -14.5t-30.5 3.5q-15 3 -33.5 3h-36.5q-17 0 -45 -3t-33 3q-4 3 0 10t8.5 16t12 16.5t10.5 7.5q8 0 14 -2.5t16 -0.5 q11 3 15.5 14t5.5 23q0 5 -0.5 44t-2 86t-2 89t-0.5 55q0 53 -18 75q-4 3 -14.5 3t-22 0.5t-20.5 5t-8 18.5q2 12 10 18.5t17 7.5t19.5 -1t17.5 -2q14 0 28.5 -0.5t40.5 2.5q27 4 33.5 12.5t12.5 12.5q6 3 12 9t17 4q19 -6 0 -13q-7 -4 -10 -2l-2 4h12zM239 540q8 4 32.5 3 t49.5 -3q30 -2 65 -4zM340 264q1 -49 2.5 -90.5t2.5 -47.5q2 -11 4 -13q0 -1 2 0l-10 -1l-4 280zM352 105q4 12 17 9.5t30 -12.5q18 -8 17.5 -29t-0.5 -25q1 -3 0.5 6t-0.5 16q0 5 -9 14.5t-13 12.5q-1 0 -8 1.5t-15 1.5t-13.5 0.5t-5.5 4.5zM207 626q-10 0 5 13t30 19 q14 6 25.5 16.5t23.5 14.5q12 8 29 21.5t27 25.5q9 13 24 11t23 -17q10 -14 -2.5 -22t-21.5 -10q-9 -4 -12 -7t-14 -6q-6 -4 -17.5 -11t-24.5 -16q-17 -8 -33 -21l-16 -9l-16.5 -5t-10.5 -2q-8 0 -9.5 2.5t-9.5 2.5zM361 674q-5 -4 -2.5 -9.5t-1.5 -5.5q-5 0 -23 -8l-20 -11 l-52 -23l15 9q8 3 15 7q17 7 27 14z" />
<glyph unicode="&#xee;" horiz-adv-x="601" d="M384 525q5 0 11.5 -2t11.5 -4q3 -4 4 -12.5t1 -17.5q0 -10 -2 -24q2 3 2 11q0 4 -1 11.5t-3 15.5q-1 9 -7 12.5t-13.5 3.5t-14.5 -2t-8 -2q-4 -3 1.5 -6t10.5 -6q7 -3 13.5 -10.5t8.5 -16.5q4 -10 -4 -19.5t-17 -18.5q-9 -7 -25.5 -3.5t-21.5 5.5q-14 7 -24 -2 q-7 -3 -7 -10.5v-19.5v-258v-19t0.5 -25t1 -23t5.5 -10q5 -2 15 7t17 9q8 0 15.5 -7t14.5 -5q5 0 11.5 -1t14.5 -6q7 -7 4 -23.5t-12 -25.5q-9 -14 -26.5 -14.5t-30.5 3.5q-15 3 -33.5 3h-36.5q-17 0 -45 -3t-33 3q-4 3 0 10t8.5 16t12 16.5t10.5 7.5q8 0 14 -2.5t16 -0.5 q11 3 15.5 14t5.5 23q0 5 -0.5 44t-2 86t-2 89t-0.5 55q0 53 -18 75q-4 3 -14.5 3t-22 0.5t-20.5 5t-8 18.5q2 12 10 18.5t17 7.5t19.5 -1t17.5 -2q14 0 28.5 -0.5t40.5 2.5q27 4 33.5 12.5t12.5 12.5q6 3 12 9t17 4q19 -6 0 -13q-7 -4 -10 -2l-2 4h12zM237 540q8 4 32.5 3 t49.5 -3q30 -2 65 -4zM338 264q1 -49 2.5 -90.5t2.5 -47.5q2 -11 4 -13q0 -1 2 0l-10 -1l-4 280zM350 105q4 12 17 9.5t30 -12.5q18 -8 17.5 -29t-0.5 -25q1 -3 0.5 6t-0.5 16q0 5 -9 14.5t-13 12.5q-1 0 -8 1.5t-15 1.5t-13.5 0.5t-5.5 4.5zM264 682q-5 -3 -19 -15t-27 -25 t-24 -19.5t-7 -0.5q1 6 -2 4.5t-7.5 -4t-9 -4t-4.5 3.5q0 13 -0.5 13t7.5 9q9 8 19.5 16.5t22.5 21.5q12 15 29 31.5t17 21.5q0 7 2.5 11.5t19.5 7.5l24.5 5t13.5 -10q1 -8 11 -18l5 -4l15 -15q7 -5 12.5 -10t9.5 -5q2 -3 9.5 -7.5t14.5 -10.5l18 -15q5 -5 11 -12 q9 -12 2 -19l-16 -15.5t-19 4.5q-8 13 -8 18t-7 11q-5 7 -12.5 11.5t-15.5 8.5q-11 8 -25.5 15l-22.5 11q-4 1 -8 2.5t-8 1.5h-8q0 -3 -2 -7q-4 -8 -11 -12zM345 746q17 -15 35 -27q15 -10 28 -21.5t17 -20.5z" />
<glyph unicode="&#xef;" d="M386 525q5 0 11.5 -2t11.5 -4q3 -4 4 -13t1 -17q0 -11 -2 -24q2 3 2 11q0 4 -1 11.5t-3 15.5q-1 9 -7 12.5t-13.5 3.5t-14.5 -2t-8 -2q-4 -3 1.5 -6t10.5 -6q7 -3 14 -10.5t8 -16.5q4 -10 -4 -19.5l-16 -18.5q-10 -7 -26.5 -3.5t-21.5 5.5q-14 7 -24 -2q-7 -3 -7 -10.5 v-19.5v-258v-19t0.5 -25t1.5 -23.5t5 -10.5q5 -1 15 8t17 9q8 0 15.5 -7t14.5 -5q5 0 11.5 -1t14.5 -6q7 -7 4 -23.5t-12 -25.5q-8 -14 -26 -14.5t-31 3.5q-15 3 -33.5 3h-36.5q-17 0 -45 -3t-33 3q-4 2 0 9.5l8.5 16.5t12 16.5t10.5 7.5q8 0 14 -2.5t16 -0.5q11 3 15.5 14 t5.5 23q0 5 -0.5 44t-2 85.5t-2 89t-0.5 55.5q0 53 -18 75q-4 3 -14.5 3t-22 0.5t-20.5 5t-8 18.5q2 12 10 18t17 7.5t19.5 -0.5t17.5 -2q14 0 28.5 -0.5t40.5 1.5q27 5 33.5 13.5t12.5 12.5q6 3 12 9t17 3q19 -5 0 -12q-7 -4 -10 -2l-2 4h12zM239 540q8 4 32.5 3t49.5 -3 q30 -2 65 -5zM340 264q1 -49 2.5 -90.5t2.5 -48.5q2 -10 4 -12q0 -1 2 0l-10 -1l-4 280zM352 105q4 12 17 9.5t31 -12.5q17 -8 16.5 -29t-0.5 -25q1 -3 0.5 6t-0.5 16q0 5 -9 14.5t-13 12.5q-1 0 -8 1.5t-15 1.5t-13.5 0.5t-5.5 4.5zM341 626q0 9 16 18l18 11q0 3 -3.5 5 t-9 3t-8.5 4t-3 10q1 15 3.5 27.5t12.5 12.5q4 0 14 -3t20.5 -10t18 -20t4.5 -29q-3 -35 -22.5 -44t-33.5 -6q-27 2 -27 21zM344 707q-6 -7 -3 -28t0 -29q-3 -5 -3 -7.5t-1 -5.5q-3 -4 -3 -5q-1 5 -1 12v14q0 4 -2 8.5t-2 14.5q0 7 8 17q3 6 7 9zM201 717q6 0 15.5 -3 t20 -10t17.5 -20t6 -29q-4 -35 -23 -44t-34 -6q-26 2 -26 21q0 7 8 13q4 2 10 6q1 7 -5 12.5t-5 19.5q0 4 1.5 6t1.5 5l-7 -23t-4 -15q-4 -5 -4 -7.5t-2 -5.5q-1 -4 -1 -5q-3 5 -3 12v14q0 4 -1 8.5t-1 14.5q0 17 12 24t18 10q2 2 6 2z" />
<glyph unicode="&#xf0;" horiz-adv-x="604" d="M309 468q-7 0 -31.5 -5.5t-50.5 -23.5t-48.5 -53t-24.5 -92q-4 -58 12.5 -97t40 -64.5t51.5 -35.5t52 -10q23 0 44 18.5t37 47t24.5 61.5t8.5 64t-7.5 63t-22 59t-37 45.5t-48.5 22.5zM381 498q47 -46 79 -148q6 -26 7.5 -58.5t-4.5 -67t-17 -67.5t-23 -59 q-14 -27 -39.5 -45.5t-58 -24.5t-72 5t-77.5 42q-39 31 -55.5 80.5t-18.5 101.5t9.5 102.5t30.5 84.5q18 32 50.5 48.5t63 22.5t53.5 6t22 3q-10 16 7.5 7t42.5 -33zM542 182q-7 1 -7 11q0 2 5 7zM405 526q22 -16 39.5 -42.5t30 -53.5t19 -51.5t8.5 -36.5q2 -11 3 -39.5 t-3 -62.5t-13 -70.5t-25 -66.5q-18 -30 -45 -50t-54 -32q-32 -15 -64 -22q19 5 39 15q18 8 40.5 20t42.5 34q41 39 53.5 76.5t18.5 82.5q4 23 2 52t-6 58t-11.5 57t-14.5 50q-8 20 -26.5 39.5t-38.5 35.5t-38 25.5t-22 9.5q-3 2 -8 3t-12 3q-7 3 -16 6q13 0 29 -6 q14 -2 31.5 -11t40.5 -23zM262 431q-19 -17 -36 -40q-13 -19 -24 -49t-7 -69q1 -38 8.5 -60.5t15 -35.5t16.5 -19t14 -11q13 -13 23.5 -22.5t6.5 -13.5q-1 -4 -11.5 -1t-23 9t-25 17.5t-18.5 26.5q-15 30 -22 81.5t7 97.5q8 22 20.5 38t25.5 28q13 13 30 23zM385 594 q-10 0 -10.5 -2.5t-9.5 -2.5t-26 7l-18 9q-16 12 -31 20q-15 10 -27 16.5t-15 11.5q-11 2 -14.5 5.5t-12.5 7.5q-8 1 -20.5 9.5t-4.5 21.5q10 15 25 18t23 -10q11 -13 27 -26.5t30 -20.5q12 -5 23 -15.5t26 -17.5q13 -5 28 -18t7 -13zM272 616q11 -8 26 -15l16 -7l14 -8 l-50 22l-22 11q-3 1 -7.5 3t-7.5 3q-5 3 -8 3t0 5t-3 9z" />
<glyph unicode="&#xf1;" horiz-adv-x="596" d="M149 662q3 4 5 7.5t6 7.5q4 2 7 5q0 -3 4 -3q7 0 14 8q5 5 16 13t26 16t30 13.5t27 5.5q24 -4 39 -28.5t33 -33.5q18 -7 24 1t13 4q6 -3 8 -16t11 -3q9 8 9 18v6l10 14l8 10t8 1q4 -3 5.5 -14.5t-1.5 -16.5q-3 -4 -12.5 -11.5t-21.5 -16t-26.5 -14.5t-26.5 -5 q-12 2 -24.5 10t-23 17.5t-18 17.5t-9.5 12q-5 3 -17.5 3t-22.5 -5q-10 -3 -16.5 -10.5t-11.5 -10.5q-2 -4 -3.5 -10.5t-5.5 -17.5q-8 -8 -15.5 -8t-18.5 2q-11 4 -22.5 9.5t-6.5 22.5zM469 705q19 7 8 -38q-4 -9 -14.5 -17.5t-22 -14t-20 -6.5t-4.5 0q6 1 13 6.5t17 9.5 q8 3 13.5 5.5t9.5 11.5q2 11 2 23v15zM236 658l7 2q6 4 18 6q12 0 15 -2q4 -2 5 -4zM177 65q-3 -6 -12.5 -17.5t-17.5 -14.5q-18 -2 -30 37q-3 8 -3 46v81.5t1.5 78.5t1.5 39q0 11 4 27.5t4 29.5t5.5 34t3.5 29q0 4 -4 13t-7 18.5l-6 19.5t-3 14q3 11 21.5 20t23.5 14 t6.5 10.5t1.5 1.5v-10.5t6 -12.5q5 -5 14.5 -29t18.5 -33l14.5 -29.5l24 -51l24 -51t16.5 -30.5q8 -14 34 -44q12 -17 26 -31q-1 -3 -5 -3q-4 -2 -5.5 -2t-5.5 -1q-6 -4 -4.5 -13t4.5 -20q2 -9 7 -19t13 -24q7 -12 16.5 -14t16.5 6q9 4 11 23t6 33q0 6 1 39t3 68.5t2.5 68 t0.5 43.5q3 22 -4.5 47t-7.5 34q1 9 9.5 13.5l14.5 7.5q6 4 17 19q5 8 11 16q1 -7 5 -13q3 -7 3.5 -14t3.5 -9q3 -7 -2 -21.5t-8 -38.5q-1 -12 -1.5 -43.5t-0.5 -69.5t-1.5 -78t-1.5 -71q0 -65 8 -93.5t4 -47.5q-1 -8 -10 -13t-19 -5.5t-20.5 0t-14.5 4.5q-5 2 -8.5 12.5 t-6 21l-5 20t-3.5 12.5l-35 47q-2 3 -14.5 23.5l-29.5 50l-37 62l-37.5 61.5l-29.5 49.5t-14 21.5q-7 6 -12 0.5t-15 -12.5q-3 -4 -4 -15.5t1 -23.5q2 -14 3 -30q5 8 10 15q6 12 8 8q2 -7 -0.5 -24.5t-5.5 -45.5v-43.5t1.5 -57.5t2 -51.5t0.5 -28.5q2 -9 10 -20t7 -20z M196 63q0 2 -1 13.5t-3 29t-2.5 40t-3.5 45.5q-3 54 -7 120q4 -17 10 -32q3 -13 5.5 -27t2.5 -16q-1 -4 -1 -31.5v-58.5v-83zM345 274q-1 0 -9 11q-5 6 -16.5 25.5t-32.5 60.5q-21 38 -42 71.5t-39 57.5q-20 29 -39 52q6 -2 12 -6l11.5 -7.5t11.5 -5.5q7 -4 16 -19l20 -34 t21 -39.5t19 -36.5q9 -14 20.5 -37l22.5 -44zM475 77q2 -3 2 -7v-7q0 -5 -2 -7v21zM459 22q-5 -5 -12 -8l-10 -6.5t-8 -2.5q-11 -4 -13 -4h-7zM216 219l3 -8l-10 -9zM471 289v73t2 65.5t3.5 49t5.5 23.5q-1 -102 -1 -182v-187q0 -5 -4 -10t-4 -9t-1 -6t-1 -5v-2v190z" />
<glyph unicode="&#xf2;" horiz-adv-x="596" d="M295 469q-7 0 -30.5 -5.5t-50 -24t-49 -53t-23.5 -91.5q-4 -59 12 -98.5t40 -64.5t52 -35.5t50 -10.5q23 0 44.5 18.5t37 47t24.5 62t9 64.5q0 32 -7.5 63.5t-22.5 59t-37.5 46t-48.5 22.5zM367 499q48 -47 79 -149q7 -25 8.5 -58t-5 -67.5t-17 -68t-23.5 -59.5 q-13 -27 -39 -45.5t-57.5 -24.5t-71 5t-77.5 42q-40 31 -56 81t-18.5 102.5t9.5 102.5t31 84q17 33 50 49.5t63.5 22.5t52.5 6t21 2q-10 17 8 8t42 -33zM529 182q-7 1 -7 11q0 2 4 6zM392 527q21 -16 39 -42.5t30 -54t19 -52t8 -36.5q3 -11 3.5 -39.5t-3.5 -62.5t-13 -70.5 t-25 -66.5q-18 -30 -45 -50.5t-54 -32.5q-32 -15 -64 -22q19 5 39 15q18 8 40.5 20.5t42.5 33.5q41 40 54 77.5t18 82.5q4 23 2 52t-6 58.5t-11.5 57t-14.5 49.5q-8 21 -26 40.5t-38.5 35t-38.5 25t-22 9.5q-2 3 -7.5 4t-12.5 3q-7 3 -16 6q13 0 29 -6q14 -2 31.5 -11 t41.5 -23zM249 432q-19 -18 -35 -41q-14 -19 -24.5 -49t-6.5 -69q1 -38 8.5 -60.5t15 -35.5t16.5 -19t14 -12q12 -12 23 -21.5t7 -13.5q-1 -4 -11.5 -1.5t-23.5 9t-25 18t-19 26.5q-15 30 -21.5 81.5t6.5 97.5q8 22 21 38.5t25 28.5q14 12 30 23zM371 593q-9 0 -10 -1.5 t-10 -1.5q-8 0 -26 5l-18 9l-29 21l-27.5 16t-14.5 11q-11 2 -14.5 5.5t-12.5 7.5q-9 2 -21 10t-4 22q10 15 25 17.5t23 -9.5q11 -14 27 -27.5t28 -20.5q12 -5 23 -15.5t26 -16.5q13 -6 28 -19t7 -13zM260 615q11 -8 25 -15q6 -3 15 -7l14 -6l-48 20l-22 11q-3 1 -7.5 3 t-7.5 4q-5 2 -8 2t0 5t-3 9z" />
<glyph unicode="&#xf3;" horiz-adv-x="596" d="M295 467q-6 0 -30.5 -5t-51 -23.5t-49 -53t-23.5 -91.5q-4 -57 12 -96.5t40 -64.5t51.5 -35t52.5 -10q23 0 44 18t36.5 46.5t24.5 62t9 64.5q0 29 -7.5 61t-22.5 59.5t-37.5 45.5t-48.5 22zM367 497q48 -46 79 -148q7 -26 8.5 -57.5t-4.5 -66t-17 -68t-23 -58.5 q-14 -28 -40 -46t-58.5 -24.5t-72 4.5t-77.5 42q-39 32 -55.5 81.5t-18.5 100.5t9.5 101.5t30.5 84.5q18 33 50.5 49t63 22t54 6t21.5 3q-9 16 8.5 7.5t41.5 -33.5zM529 183q-7 1 -7 11q0 2 4 6zM392 526q22 -16 39.5 -42.5t29.5 -54t19 -52t8 -36.5q3 -11 3.5 -38.5 t-3.5 -61.5t-12.5 -70.5t-25.5 -66.5t-44.5 -50.5t-54.5 -32.5q-31 -15 -64 -22q19 6 40 15q17 8 39.5 20.5t43.5 34.5q40 39 53 76.5t19 82.5q4 23 2 51t-6.5 57.5t-11.5 57t-14 49.5q-8 20 -26.5 40t-39 35.5t-38 25t-21.5 9.5q-3 3 -8.5 3.5t-12.5 3.5q-6 2 -16 5 q14 0 30 -5q14 -3 31.5 -12t40.5 -22zM248 431q-19 -18 -35 -41q-14 -19 -25 -49t-7 -67q2 -38 9.5 -60.5t15 -35.5t16 -19t14.5 -12q12 -12 23 -21.5t7 -13.5q-2 -4 -12 -1t-23 9t-25 17.5t-19 26.5q-15 30 -22 80.5t7 96.5q8 22 21 38t25 29q14 12 30 23zM213 625 q-11 0 4 13.5t30 19.5q13 6 25.5 15.5t24.5 15.5q12 7 29 21t25 26q11 13 25.5 10t22.5 -16q5 -11 -1 -20t-21 -13q-10 -3 -14 -6.5t-13 -7.5q-6 -4 -18 -10.5t-24 -14.5q-17 -10 -32 -22q-10 -6 -19 -8q-9 -4 -16 -6t-11 -2q-8 0 -9.5 2.5t-7.5 2.5zM363 659q-6 0 -24 -10 l-20 -9l-52 -23l15 8q8 4 15 7q16 8 27 15l42 26q-4 -3 -2 -8.5t-1 -5.5z" />
<glyph unicode="&#xf4;" horiz-adv-x="596" d="M295 467q-6 0 -30.5 -5t-51 -23.5t-49 -53t-23.5 -91.5q-4 -57 12 -96.5t40 -64.5t51.5 -35t52.5 -10q23 0 44 18t36.5 46.5t24.5 62t9 64.5q0 29 -7.5 61t-22.5 59.5t-37.5 45.5t-48.5 22zM367 497q48 -46 79 -148q7 -26 8.5 -57.5t-4.5 -66t-17 -68t-23 -58.5 q-14 -28 -40 -46t-58.5 -24.5t-72 4.5t-77.5 42q-39 32 -55.5 81.5t-18.5 100.5t9.5 101.5t30.5 84.5q18 33 50.5 49t63 22t54 6t21.5 3q-9 16 8.5 7.5t41.5 -33.5zM529 183q-7 1 -7 11q0 2 4 6zM392 526q22 -16 39.5 -42.5t29.5 -54t19 -52t8 -36.5q3 -11 3.5 -38.5 t-3.5 -61.5t-12.5 -70.5t-25.5 -66.5t-44.5 -50.5t-54.5 -32.5q-31 -15 -64 -22q19 6 40 15q17 8 39.5 20.5t43.5 34.5q40 39 53 76.5t19 82.5q4 23 2 51t-6.5 57.5t-11.5 57t-14 49.5q-8 20 -26.5 40t-39 35.5t-38 25t-21.5 9.5q-3 3 -8.5 3.5t-12.5 3.5q-6 2 -16 5 q14 0 30 -5q14 -3 31.5 -12t40.5 -22zM248 431q-19 -18 -35 -41q-14 -19 -25 -49t-7 -67q2 -38 9.5 -60.5t15 -35.5t16 -19t14.5 -12q12 -12 23 -21.5t7 -13.5q-2 -4 -12 -1t-23 9t-25 17.5t-19 26.5q-15 30 -22 80.5t7 96.5q8 22 21 38t25 29q14 12 30 23zM164 622 q1 6 -2.5 4t-7.5 -5t-8.5 -3.5t-4.5 4.5q0 12 -1 12t7 9q10 9 20 16.5t23 22.5q12 14 29 31t17 22q0 7 2.5 11t18.5 8q15 1 24.5 4t13.5 -9q2 -10 11 -18l6 -6q8 -6 15 -13q7 -6 12 -11t9 -5q3 -2 10.5 -7.5l14.5 -10.5l18 -14q5 -5 10 -12q10 -12 3 -20q-8 -8 -16 -15 t-19 5q-8 12 -8 17.5t-7 9.5q-6 9 -13 13l-16 9q-10 7 -24 14t-23 11q-4 1 -8 3t-8 2h-9q0 -4 -1 -7q-4 -9 -11 -12q-5 -4 -19.5 -16.5l-27.5 -24.5t-23.5 -19t-6.5 0zM321 745q18 -14 36 -26q15 -11 27.5 -22.5t16.5 -19.5z" />
<glyph unicode="&#xf5;" horiz-adv-x="596" d="M151 662q3 4 5 7.5t6 7.5q4 2 7 5q0 -3 4 -3q7 0 14 9q5 4 16 12t26 16t29.5 13.5t27.5 5.5q24 -4 39 -28.5t33 -33.5q17 -7 23 1t13 4q7 -3 9 -15.5t10 -3.5q10 8 10 18v7l9 13q4 6 8.5 10.5t8.5 0.5q4 -3 5 -14.5t-1 -16.5q-3 -4 -12.5 -11.5t-21.5 -16t-26.5 -14.5 t-26.5 -4q-12 1 -24.5 9t-23.5 17.5t-18.5 18t-8.5 12.5q-5 2 -17.5 2t-23.5 -5q-9 -3 -16 -10.5t-11 -9.5q-2 -5 -3.5 -11.5t-5.5 -17.5q-8 -8 -15.5 -8t-18.5 3q-11 4 -22.5 9.5t-6.5 21.5zM470 705q19 7 8 -38q-4 -9 -14 -17.5t-21.5 -13.5t-20.5 -6.5t-5 -0.5q7 2 14 7 t16 10q8 2 13.5 5t9.5 11q3 11 3 23v15zM238 658l7 2q5 5 18 6q12 0 15 -1q4 -3 5 -5zM288 468q-6 0 -30.5 -5.5t-51 -24t-48.5 -53t-24 -91.5q-3 -57 12.5 -96.5t39.5 -64.5t51.5 -35.5t53.5 -10.5q22 0 43 18.5t37 47t25 61.5t9 65q0 30 -8 62t-23 59t-36.5 45.5 t-49.5 22.5zM360 498q48 -47 80 -148q7 -26 8 -58t-5.5 -67t-17 -68t-23.5 -59q-13 -27 -39 -45.5t-58 -24.5t-72 5t-78 42q-39 31 -55.5 80.5t-18.5 101.5t9.5 102t30.5 84q18 33 50.5 49t63 22.5t53.5 6.5t22 2q-9 17 8.5 8t41.5 -33zM522 182q-7 2 -7 11q0 3 4 7z M385 526q22 -16 39.5 -42.5t29.5 -53.5t19 -51.5t10 -37.5q1 -10 1.5 -38t-3.5 -62t-13 -71t-25 -66q-17 -30 -44.5 -50.5t-53.5 -32.5q-32 -15 -65 -22q19 5 41 15q16 8 38.5 20.5t42.5 33.5q41 40 54.5 77t17.5 82q4 23 2 52t-6 58t-10.5 57t-14.5 49q-9 21 -27 40.5 t-38.5 35t-38 25t-20.5 9.5q-4 3 -9.5 3.5t-12.5 3.5t-16 5q15 0 30 -5q15 -3 32.5 -11.5t39.5 -22.5zM166 341q7 22 20 38.5t25 28.5l30 23q-19 -18 -35 -41q-14 -19 -24 -48.5t-8 -68.5q2 -38 9.5 -60.5t15 -35t16 -19t14.5 -11.5q12 -12 23 -21.5t7 -13.5 q-2 -4 -11.5 -1.5t-23 8.5t-25.5 17.5t-19 26.5q-14 30 -21.5 81t7.5 97z" />
<glyph unicode="&#xf6;" horiz-adv-x="596" d="M296 467q-6 0 -30.5 -5t-51 -23.5t-49 -53t-23.5 -91.5q-4 -57 12 -96.5t40 -64.5t51.5 -35t52.5 -10q23 0 44 18t36.5 46.5t24.5 62t9 64.5q0 29 -7.5 61t-22.5 59.5t-37.5 45.5t-48.5 22zM368 497q48 -46 79 -148q7 -26 8.5 -57.5t-4.5 -66t-17 -68t-23 -58.5 q-14 -28 -40 -46t-58.5 -24.5t-72 4.5t-77.5 42q-39 32 -55.5 81.5t-18.5 100.5t9.5 101.5t30.5 84.5q18 33 50.5 49t63 22t54 6t21.5 3q-9 16 8.5 7.5t41.5 -33.5zM530 183q-7 1 -7 11q0 2 4 6zM393 526q22 -16 39.5 -42.5t29.5 -54t19 -52t8 -36.5q3 -11 3.5 -38.5 t-3.5 -61.5t-12.5 -70.5t-25.5 -66.5t-44.5 -50.5t-54.5 -32.5q-31 -15 -64 -22q19 6 40 15q17 8 39.5 20.5t43.5 34.5q40 39 53 76.5t19 82.5q4 23 2 51t-6.5 57.5t-11.5 57t-14 49.5q-8 20 -26.5 40t-39 35.5t-38 25t-21.5 9.5q-3 3 -8.5 3.5t-12.5 3.5q-6 2 -16 5 q14 0 30 -5q14 -3 31.5 -12t40.5 -22zM249 431q-19 -18 -35 -41q-14 -19 -25 -49t-7 -67q2 -38 9.5 -60.5t15 -35.5t16 -19t14.5 -12q12 -12 23 -21.5t7 -13.5q-2 -4 -12 -1t-23 9t-25 17.5t-19 26.5q-15 30 -22 80.5t7 96.5q8 22 21 38t25 29q14 12 30 23zM356 653 q0 5 -3.5 6t-8.5 3t-8.5 5t-3.5 10q1 13 4 26.5t12 13.5q4 0 14.5 -4t20.5 -10.5t17.5 -19t4.5 -30.5q-3 -35 -22.5 -43.5t-33.5 -4.5q-27 1 -27 20q0 9 17 18zM322 648q-2 -3 -2 -5.5t-2 -6.5t-2 -6q-2 6 -2 13v15q0 2 -2 7.5t-2 13.5t8 18q3 5 7 9q-5 -6 -2.5 -27 t-0.5 -31zM241 653q-4 -35 -23 -43.5t-34 -4.5q-26 1 -26 20q0 7 8 12q4 4 10 8q1 7 -5 12t-5 20q0 2 1.5 4t1.5 6q-4 -12 -7 -23t-4 -16q-4 -3 -4 -5.5t-1 -6.5q-2 -4 -2 -6q-3 6 -3 13v15q0 2 -1 7.5t-1 13.5q0 18 12 25.5t18 8.5q2 4 6 4q6 0 15.5 -4t20.5 -10.5 t17.5 -19t5.5 -30.5z" />
</font>
</defs>
</svg>
